  0
SECTION
  2
HEADER
  9
$ACADVER
  1
AC1015
  9
$ACADMAINTVER
 70
    20
  9
$DWGCODEPAGE
  3
ANSI_1252
  9
$INSBASE
 10
0.0
 20
0.0
 30
0.0
  9
$EXTMIN
 10
24.30176175234601
 20
20.175845074672
 30
-0.0015258207003583
  9
$EXTMAX
 10
1655.826419899038
 20
1167.3709744217
 30
0.0000000349246037
  9
$LIMMIN
 10
0.0
 20
0.0
  9
$LIMMAX
 10
1680.0
 20
1188.0
  9
$ORTHOMODE
 70
     0
  9
$REGENMODE
 70
     1
  9
$FILLMODE
 70
     1
  9
$QTEXTMODE
 70
     0
  9
$MIRRTEXT
 70
     0
  9
$LTSCALE
 40
4.0
  9
$ATTMODE
 70
     1
  9
$TEXTSIZE
 40
0.2
  9
$TRACEWID
 40
0.05
  9
$TEXTSTYLE
  7
Standard
  9
$CLAYER
  8
0
  9
$CELTYPE
  6
ByLayer
  9
$CECOLOR
 62
   256
  9
$CELTSCALE
 40
1.0
  9
$DISPSILH
 70
     0
  9
$DIMSCALE
 40
1.0
  9
$DIMASZ
 40
1.799999999999999
  9
$DIMEXO
 40
0.0625
  9
$DIMDLI
 40
0.38
  9
$DIMRND
 40
0.0
  9
$DIMDLE
 40
0.0
  9
$DIMEXE
 40
0.18
  9
$DIMTP
 40
0.0
  9
$DIMTM
 40
0.0
  9
$DIMTXT
 40
0.3499999940395355
  9
$DIMCEN
 40
0.09
  9
$DIMTSZ
 40
0.0
  9
$DIMTOL
 70
     0
  9
$DIMLIM
 70
     0
  9
$DIMTIH
 70
     1
  9
$DIMTOH
 70
     1
  9
$DIMSE1
 70
     0
  9
$DIMSE2
 70
     0
  9
$DIMTAD
 70
     0
  9
$DIMZIN
 70
     0
  9
$DIMBLK
  1

  9
$DIMASO
 70
     1
  9
$DIMSHO
 70
     1
  9
$DIMPOST
  1

  9
$DIMAPOST
  1

  9
$DIMALT
 70
     0
  9
$DIMALTD
 70
     2
  9
$DIMALTF
 40
25.4
  9
$DIMLFAC
 40
1.0
  9
$DIMTOFL
 70
     0
  9
$DIMTVP
 40
0.0
  9
$DIMTIX
 70
     0
  9
$DIMSOXD
 70
     0
  9
$DIMSAH
 70
     0
  9
$DIMBLK1
  1

  9
$DIMBLK2
  1

  9
$DIMSTYLE
  2
Standard
  9
$DIMCLRD
 70
     0
  9
$DIMCLRE
 70
     0
  9
$DIMCLRT
 70
     0
  9
$DIMTFAC
 40
1.0
  9
$DIMGAP
 40
0.09
  9
$DIMJUST
 70
     0
  9
$DIMSD1
 70
     0
  9
$DIMSD2
 70
     0
  9
$DIMTOLJ
 70
     1
  9
$DIMTZIN
 70
     0
  9
$DIMALTZ
 70
     0
  9
$DIMALTTZ
 70
     0
  9
$DIMUPT
 70
     0
  9
$DIMDEC
 70
     4
  9
$DIMTDEC
 70
     4
  9
$DIMALTU
 70
     2
  9
$DIMALTTD
 70
     2
  9
$DIMTXSTY
  7
Standard
  9
$DIMAUNIT
 70
     0
  9
$DIMADEC
 70
     0
  9
$DIMALTRND
 40
0.0
  9
$DIMAZIN
 70
     0
  9
$DIMDSEP
 70
    46
  9
$DIMATFIT
 70
     3
  9
$DIMFRAC
 70
     0
  9
$DIMLDRBLK
  1

  9
$DIMLUNIT
 70
     2
  9
$DIMLWD
 70
    -2
  9
$DIMLWE
 70
    -2
  9
$DIMTMOVE
 70
     0
  9
$LUNITS
 70
     2
  9
$LUPREC
 70
     4
  9
$SKETCHINC
 40
0.1
  9
$FILLETRAD
 40
0.0
  9
$AUNITS
 70
     0
  9
$AUPREC
 70
     0
  9
$MENU
  1
.
  9
$ELEVATION
 40
0.0
  9
$PELEVATION
 40
0.0
  9
$THICKNESS
 40
0.0
  9
$LIMCHECK
 70
     0
  9
$CHAMFERA
 40
0.0
  9
$CHAMFERB
 40
0.0
  9
$CHAMFERC
 40
0.0
  9
$CHAMFERD
 40
0.0
  9
$SKPOLY
 70
     0
  9
$TDCREATE
 40
2455084.585796111
  9
$TDUCREATE
 40
2455084.502462778
  9
$TDUPDATE
 40
2455084.588512639
  9
$TDUUPDATE
 40
2455084.505179306
  9
$TDINDWG
 40
0.0012109606
  9
$TDUSRTIMER
 40
0.0012093287
  9
$USRTIMER
 70
     1
  9
$ANGBASE
 50
0.0
  9
$ANGDIR
 70
     0
  9
$PDMODE
 70
     0
  9
$PDSIZE
 40
0.0
  9
$PLINEWID
 40
0.0
  9
$SPLFRAME
 70
     0
  9
$SPLINETYPE
 70
     6
  9
$SPLINESEGS
 70
     8
  9
$HANDSEED
  5
10A3
  9
$SURFTAB1
 70
     6
  9
$SURFTAB2
 70
     6
  9
$SURFTYPE
 70
     6
  9
$SURFU
 70
     6
  9
$SURFV
 70
     6
  9
$UCSBASE
  2

  9
$UCSNAME
  2

  9
$UCSORG
 10
0.0
 20
0.0
 30
0.0
  9
$UCSXDIR
 10
1.0
 20
0.0
 30
0.0
  9
$UCSYDIR
 10
0.0
 20
1.0
 30
0.0
  9
$UCSORTHOREF
  2

  9
$UCSORTHOVIEW
 70
     0
  9
$UCSORGTOP
 10
0.0
 20
0.0
 30
0.0
  9
$UCSORGBOTTOM
 10
0.0
 20
0.0
 30
0.0
  9
$UCSORGLEFT
 10
0.0
 20
0.0
 30
0.0
  9
$UCSORGRIGHT
 10
0.0
 20
0.0
 30
0.0
  9
$UCSORGFRONT
 10
0.0
 20
0.0
 30
0.0
  9
$UCSORGBACK
 10
0.0
 20
0.0
 30
0.0
  9
$PUCSBASE
  2

  9
$PUCSNAME
  2

  9
$PUCSORG
 10
0.0
 20
0.0
 30
0.0
  9
$PUCSXDIR
 10
1.0
 20
0.0
 30
0.0
  9
$PUCSYDIR
 10
0.0
 20
1.0
 30
0.0
  9
$PUCSORTHOREF
  2

  9
$PUCSORTHOVIEW
 70
     0
  9
$PUCSORGTOP
 10
0.0
 20
0.0
 30
0.0
  9
$PUCSORGBOTTOM
 10
0.0
 20
0.0
 30
0.0
  9
$PUCSORGLEFT
 10
0.0
 20
0.0
 30
0.0
  9
$PUCSORGRIGHT
 10
0.0
 20
0.0
 30
0.0
  9
$PUCSORGFRONT
 10
0.0
 20
0.0
 30
0.0
  9
$PUCSORGBACK
 10
0.0
 20
0.0
 30
0.0
  9
$USERI1
 70
     0
  9
$USERI2
 70
     0
  9
$USERI3
 70
     0
  9
$USERI4
 70
     0
  9
$USERI5
 70
     0
  9
$USERR1
 40
0.0
  9
$USERR2
 40
0.0
  9
$USERR3
 40
0.0
  9
$USERR4
 40
0.0
  9
$USERR5
 40
0.0
  9
$WORLDVIEW
 70
     1
  9
$SHADEDGE
 70
     3
  9
$SHADEDIF
 70
    70
  9
$TILEMODE
 70
     1
  9
$MAXACTVP
 70
    64
  9
$PINSBASE
 10
0.0
 20
0.0
 30
0.0
  9
$PLIMCHECK
 70
     0
  9
$PEXTMIN
 10
0.0
 20
0.0
 30
0.0
  9
$PEXTMAX
 10
1680.0
 20
1188.0
 30
0.0
  9
$PLIMMIN
 10
0.0
 20
0.0
  9
$PLIMMAX
 10
1680.0
 20
1188.0
  9
$UNITMODE
 70
     0
  9
$VISRETAIN
 70
     1
  9
$PLINEGEN
 70
     0
  9
$PSLTSCALE
 70
     1
  9
$TREEDEPTH
 70
  3020
  9
$CMLSTYLE
  2
Standard
  9
$CMLJUST
 70
     0
  9
$CMLSCALE
 40
1.0
  9
$PROXYGRAPHICS
 70
     1
  9
$MEASUREMENT
 70
     1
  9
$CELWEIGHT
370
    -1
  9
$ENDCAPS
280
     0
  9
$JOINSTYLE
280
     0
  9
$LWDISPLAY
290
     0
  9
$INSUNITS
 70
     4
  9
$HYPERLINKBASE
  1

  9
$STYLESHEET
  1

  9
$XEDIT
290
     1
  9
$CEPSNTYPE
380
     0
  9
$PSTYLEMODE
290
     1
  9
$FINGERPRINTGUID
  2
{DDF9FCC1-7A5C-42D2-B3D2-0F5CA5C8C1DA}
  9
$VERSIONGUID
  2
{390C9319-CBF7-4E12-AF50-5FF0163435DF}
  9
$EXTNAMES
290
     1
  9
$PSVPSCALE
 40
0.0
  9
$OLESTARTUP
290
     0
  0
ENDSEC
  0
SECTION
  2
CLASSES
  0
CLASS
  1
ACDBDICTIONARYWDFLT
  2
AcDbDictionaryWithDefault
  3
ObjectDBX Classes
 90
        0
280
     0
281
     0
  0
CLASS
  1
MATERIAL
  2
AcDbMaterial
  3
ObjectDBX Classes
 90
     1153
280
     0
281
     0
  0
CLASS
  1
VISUALSTYLE
  2
AcDbVisualStyle
  3
ObjectDBX Classes
 90
     4095
280
     0
281
     0
  0
CLASS
  1
SCALE
  2
AcDbScale
  3
ObjectDBX Classes
 90
     1153
280
     0
281
     0
  0
CLASS
  1
TABLESTYLE
  2
AcDbTableStyle
  3
ObjectDBX Classes
 90
     4095
280
     0
281
     0
  0
CLASS
  1
MLEADERSTYLE
  2
AcDbMLeaderStyle
  3
ACDB_MLEADERSTYLE_CLASS
 90
     4095
280
     0
281
     0
  0
CLASS
  1
IMAGE
  2
AcDbRasterImage
  3
ISM
 90
     2175
280
     0
281
     1
  0
CLASS
  1
IMAGEDEF
  2
AcDbRasterImageDef
  3
ISM
 90
        0
280
     0
281
     0
  0
CLASS
  1
IMAGEDEF_REACTOR
  2
AcDbRasterImageDefReactor
  3
ISM
 90
        1
280
     0
281
     0
  0
CLASS
  1
RASTERVARIABLES
  2
AcDbRasterVariables
  3
ISM
 90
        0
280
     0
281
     0
  0
CLASS
  1
SORTENTSTABLE
  2
AcDbSortentsTable
  3
ObjectDBX Classes
 90
        0
280
     0
281
     0
  0
CLASS
  1
DICTIONARYVAR
  2
AcDbDictionaryVar
  3
ObjectDBX Classes
 90
        0
280
     0
281
     0
  0
CLASS
  1
CELLSTYLEMAP
  2
AcDbCellStyleMap
  3
ObjectDBX Classes
 90
     1152
280
     0
281
     0
  0
CLASS
  1
ACDBPLACEHOLDER
  2
AcDbPlaceHolder
  3
ObjectDBX Classes
 90
        0
280
     0
281
     0
  0
CLASS
  1
LAYOUT
  2
AcDbLayout
  3
ObjectDBX Classes
 90
        0
280
     0
281
     0
  0
CLASS
  1
AMGSETTINGSOBJ
  2
AmgSettingsObj
  3
"AcadM|Product Description: AutoCAD Mechanical|Company: Autodesk, Inc."
 90
     1024
280
     0
281
     0
  0
CLASS
  1
AMGOBJPROPCFG
  2
AmgObjPropCfg
  3
"AmgLay|Product Description: AutoCAD Mechanical|Company: Autodesk, Inc."
 90
     1025
280
     0
281
     0
  0
CLASS
  1
ACMESCOPE
  2
AcMeScope
  3
AcMeServices
 90
     1024
280
     0
281
     0
  0
CLASS
  1
ACGREFMASTER
  2
AcGrefMaster
  3
AcAttribServices
 90
     1024
280
     0
281
     0
  0
CLASS
  1
ACME_DOCUMENT
  2
AcMeDbDoc
  3
AcMeServices
 90
     1024
280
     0
281
     0
  0
CLASS
  1
ACMECOMMANDHISTORY
  2
AcMeCommandHistory
  3
AcMeServices
 90
     1024
280
     0
281
     0
  0
CLASS
  1
ACIMSYSVARMAN
  2
AcImSysVarManager
  3
AcMeServices
 90
     1024
280
     0
281
     0
  0
CLASS
  1
ACIMINTSYSVAR
  2
AcImIntSysVar
  3
AcMeServices
 90
     1024
280
     0
281
     0
  0
CLASS
  1
ACMEDRAWINGMAN
  2
AcMeDrawingMan
  3
AcMeServices
 90
     1024
280
     0
281
     0
  0
CLASS
  1
ACMEVIEW
  2
AcMeView
  3
AcMeServices
 90
     1024
280
     0
281
     0
  0
CLASS
  1
ACDBENTITYCACHE
  2
AcMeEntityCache
  3
AcMeServices
 90
     1024
280
     0
281
     0
  0
CLASS
  1
GSMANAGER
  2
AcMeGSManager
  3
AcMeServices
 90
     1024
280
     0
281
     0
  0
CLASS
  1
AMDTINTERNALREACTOR
  2
AmdtInternalReactor
  3
AcMeServices
 90
     1024
280
     0
281
     0
  0
CLASS
  1
ACMESTATEMGR
  2
AcMeStateMgr
  3
AcMeServices
 90
     1024
280
     0
281
     0
  0
CLASS
  1
AM_DRAWING_MGR
  2
AcDmDwgMgr
  3
AcMechDwgViewMgmt
 90
     1024
280
     0
281
     0
  0
CLASS
  1
AM_DWG_DOCUMENT
  2
AcDmDwgDocument
  3
AcMechDwgViewMgmt
 90
     1024
280
     0
281
     0
  0
CLASS
  1
AM_DWG_SHEET
  2
AcDmSheet
  3
AcMechDwgViewMgmt
 90
     1024
280
     0
281
     0
  0
CLASS
  1
AM_VIEWDIMPARMAP
  2
AcDmViewDimParMap
  3
AcMechDwgViewMgmt
 90
     1024
280
     0
281
     0
  0
CLASS
  1
ACIMREALSYSVAR
  2
AcImRealSysVar
  3
AcMeServices
 90
     1024
280
     0
281
     0
  0
CLASS
  1
AM_DWGMGR_NAME
  2
AcDmDwgMgrName
  3
AcMechDwgViewMgmt
 90
     1024
280
     0
281
     0
  0
CLASS
  1
ACME_DATABASE
  2
AcMeDbDatabase
  3
AcMeServices
 90
     1024
280
     0
281
     0
  0
CLASS
  1
ACRFINSADJUSTERMGR
  2
AcRfInsAdjusterMgr
  3
AcMeServices
 90
     1024
280
     0
281
     0
  0
CLASS
  1
ACGREFACADMASTER
  2
AcGrefacadMaster
  3
AcGrefServices
 90
     1024
280
     0
281
     0
  0
CLASS
  1
AMDTMENUSTATEMGR
  2
AmdtMenuStateMgr
  3
McadcomServices
 90
     1024
280
     0
281
     0
  0
CLASS
  1
AMDTMCOMMENUSTATE
  2
AmdtMcomMenuState
  3
McadcomServices
 90
     1024
280
     0
281
     0
  0
CLASS
  1
AMIMASTER
  2
AmiMaster
  3
AmiServices
 90
     1024
280
     0
281
     0
  0
CLASS
  1
MAPIAMMOUDLE
  2
MApiAmModule
  3
MApiAmServices
 90
     1024
280
     0
281
     0
  0
CLASS
  1
ACMSTANDARDISO
  2
AcmStandardISO
  3
"Amdt_StdImp|Product Description: AutoCAD Mechanical|Company: Autodesk, Inc."
 90
     1024
280
     0
281
     0
  0
CLASS
  1
AMDTEDGESTANDARDISO
  2
AmdtEdgeStdISO
  3
"Amdt_StdImp|Product Description: AutoCAD Mechanical|Company: Autodesk, Inc."
 90
     1024
280
     0
281
     0
  0
CLASS
  1
ACMSURFSTANDARDISO
  2
AcmSurfTextStdISO
  3
"Amdt_StdImp|Product Description: AutoCAD Mechanical|Company: Autodesk, Inc."
 90
     1024
280
     0
281
     0
  0
CLASS
  1
ACMFCFSTANDARDISO
  2
AcmFCFStdISO
  3
"Amdt_StdImp|Product Description: AutoCAD Mechanical|Company: Autodesk, Inc."
 90
     1024
280
     0
281
     0
  0
CLASS
  1
ACMWELDSTANDARDISO
  2
AcmWeldingStdISO
  3
"Amdt_StdImp|Product Description: AutoCAD Mechanical|Company: Autodesk, Inc."
 90
     1024
280
     0
281
     0
  0
CLASS
  1
ACMIDSTANDARDISO
  2
AcmIdStdISO
  3
"Amdt_StdImp|Product Description: AutoCAD Mechanical|Company: Autodesk, Inc."
 90
     1024
280
     0
281
     0
  0
CLASS
  1
ACMDATUMSTANDARDISO
  2
AcmDatumStdISO
  3
"Amdt_StdImp|Product Description: AutoCAD Mechanical|Company: Autodesk, Inc."
 90
     1024
280
     0
281
     0
  0
CLASS
  1
ACMBOMSTANDARDISO
  2
AcmBOMStdISO
  3
"Amdt_StdImp|Product Description: AutoCAD Mechanical|Company: Autodesk, Inc."
 90
     1024
280
     0
281
     0
  0
CLASS
  1
ACMDETAILSTANDARDISO
  2
AmdtDetailSymStdISO
  3
"Amdt_StdImp|Product Description: AutoCAD Mechanical|Company: Autodesk, Inc."
 90
     1024
280
     0
281
     0
  0
CLASS
  1
ACMSECTIONSTANDARDISO
  2
AmdtSectionSymStdISO
  3
"Amdt_StdImp|Product Description: AutoCAD Mechanical|Company: Autodesk, Inc."
 90
     1024
280
     0
281
     0
  0
CLASS
  1
ACMCENTERLINESTANDARDISO
  2
AmdtCenterLineStdISO
  3
"Amdt_StdImp|Product Description: AutoCAD Mechanical|Company: Autodesk, Inc."
 90
     1024
280
     0
281
     0
  0
CLASS
  1
ACMTHREADLINESTANDARDISO
  2
AmdtThreadLineStdISO
  3
"Amdt_StdImp|Product Description: AutoCAD Mechanical|Company: Autodesk, Inc."
 90
     1024
280
     0
281
     0
  0
CLASS
  1
ACAMGLAYSTD
  2
AcAmgLayStd
  3
"AmgLay|Product Description: AutoCAD Mechanical|Company: Autodesk, Inc."
 90
     1024
280
     0
281
     0
  0
CLASS
  1
ACAMGDIMSTD
  2
AcAmgDimStd
  3
"AmgDim|Product Description: AutoCAD Mechanical|Company: Autodesk, Inc."
 90
     1024
280
     0
281
     0
  0
CLASS
  1
ACAMGTITLESTD
  2
AcAmgTitleStd
  3
"AmgTitle|Product Description: AutoCAD Mechanical|Company: Autodesk, Inc."
 90
     4095
280
     0
281
     0
  0
CLASS
  1
ACMNOTESTANDARDISO
  2
AmdtNoteStdISO
  3
"Amdt_StdImp|Product Description: AutoCAD Mechanical|Company: Autodesk, Inc."
 90
     1024
280
     0
281
     0
  0
CLASS
  1
ACAMGHOLECHARTSTDISO
  2
AcAmgHoleChartStdISO
  3
AmgDim|Product Description: AutoCAD Mechanical|Company: Autodesk, Inc.
 90
     1024
280
     0
281
     0
  0
CLASS
  1
ACMTAPERSTANDARDISO
  2
AcmTaperStdISO
  3
"Amdt_StdImp|Product Description: AutoCAD Mechanical|Company: Autodesk, Inc."
 90
     1024
280
     0
281
     0
  0
CLASS
  1
ACMANOOTATIONVIEWSTANDARDISO
  2
AmdtAnViewStdISO
  3
"Amdt_StdImp|Product Description: AutoCAD Mechanical|Company: Autodesk, Inc."
 90
     1024
280
     0
281
     0
  0
CLASS
  1
ACIMSTRSYSVAR
  2
AcImStrSysVar
  3
AcMeServices
 90
     1024
280
     0
281
     0
  0
CLASS
  1
AMDTADMENUSTATE
  2
AmdtAdMenuState
  3
DesignerServices
 90
     1024
280
     0
281
     0
  0
CLASS
  1
ADAPPL
  2
AcAdAppl
  3
DesignerServices
 90
     1024
280
     0
281
     0
  0
CLASS
  1
DEPMGR
  2
AcAdDepMgr
  3
DesignerServices
 90
     1024
280
     0
281
     0
  0
CLASS
  1
PARAMMGR
  2
AcAdParamMgr
  3
DesignerServices
 90
     1024
280
     0
281
     0
  0
CLASS
  1
PARAMSCOPE
  2
AcAdParamScope
  3
DesignerServices
 90
     1024
280
     0
281
     0
  0
CLASS
  1
NAMEDAPPL
  2
AcAdNamedAppl
  3
DesignerServices
 90
     1024
280
     0
281
     0
  0
CLASS
  1
AMDTDMMENUSTATE
  2
AmdtDmMenuState
  3
AcMechDwgViewMgmt
 90
     1024
280
     0
281
     0
  0
CLASS
  1
AMDTAMMENUSTATE
  2
AmdtAmMenuState
  3
DesignerAssemblies
 90
     1024
280
     0
281
     0
  0
CLASS
  1
ACAMPROJECT
  2
AcAmProject
  3
DesignerAssemblies
 90
     1024
280
     0
281
     0
  0
CLASS
  1
ACAMGRCOMPDEF
  2
AcAmGrCompDef
  3
DesignerAssemblies
 90
     1024
280
     0
281
     0
  0
CLASS
  1
ACCMCONTEXT
  2
AcCmContext
  3
DesignerAssemblies
 90
     1024
280
     0
281
     0
  0
CLASS
  1
ACAMCOMPDEF
  2
AcAmCompDef
  3
DesignerAssemblies
 90
     1024
280
     0
281
     0
  0
CLASS
  1
ACAMCOMPDEFMGR
  2
AcAmCompDefMgr
  3
DesignerAssemblies
 90
     1024
280
     0
281
     0
  0
CLASS
  1
AMCONTEXTMGR
  2
AcAmContextMgr
  3
DesignerAssemblies
 90
     1024
280
     0
281
     0
  0
CLASS
  1
ACAMCONTEXTMODELER
  2
AcAmContextModeler
  3
DesignerAssemblies
 90
     1024
280
     0
281
     0
  0
CLASS
  1
ACMDATADICTIONARY
  2
AcmDataDictionary
  3
"AcmSymBB|Product Description: AutoCAD Mechanical|Company: Autodesk, Inc."
 90
     1024
280
     0
281
     0
  0
CLASS
  1
CATALOGSTATE
  2
AcAmCatalogState
  3
DesignerAssemblies
 90
     1024
280
     0
281
     0
  0
CLASS
  1
ACAMGRCOMPDEFSET
  2
AcAmGrCompDefSet
  3
DesignerAssemblies
 90
     1024
280
     0
281
     0
  0
CLASS
  1
AMDTBROWSERDBTAB
  2
AmdtBrowserDbTab
  3
McadcomServices
 90
     1024
280
     0
281
     0
  0
CLASS
  1
CBROWSERAPPOBJECT
  2
CBrowserAppObject
  3
McadcomServices
 90
     1024
280
     0
281
     0
  0
CLASS
  1
DM_PLACEHOLDER
  2
AcDmSelsetPlaceholder
  3
AcMechDwgViewMgmt
 90
     1024
280
     0
281
     0
  0
CLASS
  1
ACAMGFILTERDAT
  2
AcAmgFilterDat
  3
"AcadM|Product Description: AutoCAD Mechanical|Company: Autodesk, Inc."
 90
     1024
280
     0
281
     0
  0
ENDSEC
  0
SECTION
  2
TABLES
  0
TABLE
  2
VPORT
  5
8
330
0
100
AcDbSymbolTable
 70
     1
  0
VPORT
  5
5F
330
8
100
AcDbSymbolTableRecord
100
AcDbViewportTableRecord
  2
*Active
 70
     0
 10
0.0
 20
0.0
 11
1.0
 21
1.0
 12
840.0640908256923
 22
593.7734097481861
 13
0.0
 23
0.0
 14
1.0
 24
1.0
 15
0.0
 25
0.0
 16
0.0
 26
0.0
 36
1.0
 17
0.0
 27
0.0
 37
0.0
 40
1154.588438451305
 41
1.619354838709677
 42
50.0
 43
0.0
 44
0.0
 50
0.0
 51
0.0
 71
     0
 72
   100
 73
     1
 74
     1
 75
     0
 76
     0
 77
     0
 78
     0
281
     0
 65
     1
110
0.0
120
0.0
130
0.0
111
1.0
121
0.0
131
0.0
112
0.0
122
1.0
132
0.0
 79
     0
146
0.0
  0
ENDTAB
  0
TABLE
  2
LTYPE
  5
5
330
0
100
AcDbSymbolTable
 70
    69
  0
LTYPE
  5
63
330
5
100
AcDbSymbolTableRecord
100
AcDbLinetypeTableRecord
  2
ByBlock
 70
     0
  3

 72
    65
 73
     0
 40
0.0
  0
LTYPE
  5
64
330
5
100
AcDbSymbolTableRecord
100
AcDbLinetypeTableRecord
  2
ByLayer
 70
     0
  3

 72
    65
 73
     0
 40
0.0
  0
LTYPE
  5
65
330
5
100
AcDbSymbolTableRecord
100
AcDbLinetypeTableRecord
  2
Continuous
 70
     0
  3
Solid line
 72
    65
 73
     0
 40
0.0
  0
LTYPE
  5
7E
330
5
100
AcDbSymbolTableRecord
100
AcDbLinetypeTableRecord
  2
CHAIN
 70
     0
  3
Chain ____ _ ____ _ ____ _ ____ _ ____ _ ____
 72
    65
 73
     4
 40
0.3543
 49
0.2362
 74
     0
 49
-0.0295
 74
     0
 49
0.0591
 74
     0
 49
-0.0295
 74
     0
  0
LTYPE
  5
7F
330
5
100
AcDbSymbolTableRecord
100
AcDbLinetypeTableRecord
  2
DASH_DOT
 70
     0
  3
Dash dot _._._._._._._._._._._._._._._.
 72
    65
 73
     4
 40
0.182
 49
0.1181
 74
     0
 49
-0.0295
 74
     0
 49
0.0049
 74
     0
 49
-0.0295
 74
     0
  0
LTYPE
  5
82
330
5
100
AcDbSymbolTableRecord
100
AcDbLinetypeTableRecord
  2
DASHED
 70
     0
  3
Dashed __ __ __ __ __ __ __ __ __ __ __ __ __ _
 72
    65
 73
     2
 40
0.2068
 49
0.1655
 74
     0
 49
-0.0413
 74
     0
  0
LTYPE
  5
8F
330
5
100
AcDbSymbolTableRecord
100
AcDbLinetypeTableRecord
  2
CENTER
 70
     0
  3
__ . __
 72
    65
 73
     4
 40
7.0
 49
4.0
 74
     0
 49
-1.0
 74
     0
 49
1.0
 74
     0
 49
-1.0
 74
     0
  0
LTYPE
  5
9C
330
5
100
AcDbSymbolTableRecord
100
AcDbLinetypeTableRecord
  2
HIDDEN
 70
     0
  3
Hidden __ __ __ __ __ __ __ __ __ __ __ __ __ _
 72
    65
 73
     2
 40
9.524999999999996
 49
6.349999999999998
 74
     0
 49
-3.174999999999998
 74
     0
  0
LTYPE
  5
A0
330
5
100
AcDbSymbolTableRecord
100
AcDbLinetypeTableRecord
  2
PHANTOM2
 70
     0
  3
Phantom (.5x) ___ _ _ ___ _ _ ___ _ _ ___ _ _
 72
    65
 73
     6
 40
31.75
 49
15.875
 74
     0
 49
-3.174999999999998
 74
     0
 49
3.174999999999998
 74
     0
 49
-3.174999999999998
 74
     0
 49
3.174999999999998
 74
     0
 49
-3.174999999999998
 74
     0
  0
LTYPE
  5
FE2
330
5
100
AcDbSymbolTableRecord
100
AcDbLinetypeTableRecord
  2
AM_ISO02W050
 70
     0
  3
__ __ __ __ __ __ __ __ __ __ __ __ __ __ __
 72
    65
 73
     2
 40
7.5
 49
6.0
 74
     0
 49
-1.5
 74
     0
  0
LTYPE
  5
FE3
330
5
100
AcDbSymbolTableRecord
100
AcDbLinetypeTableRecord
  2
AM_ISO08W050
 70
     0
  3
____ . ____ . ____ . ____ . ____ . ____ . ____
 72
    65
 73
     4
 40
18.0
 49
12.0
 74
     0
 49
-1.5
 74
     0
 49
3.0
 74
     0
 49
-1.5
 74
     0
  0
LTYPE
  5
FE4
330
5
100
AcDbSymbolTableRecord
100
AcDbLinetypeTableRecord
  2
AM_ISO09W050
 70
     0
  3
_____ . . _____ . . _____ . . ____ .. ____
 72
    65
 73
     6
 40
22.5
 49
12.0
 74
     0
 49
-1.5
 74
     0
 49
3.0
 74
     0
 49
-1.5
 74
     0
 49
3.0
 74
     0
 49
-1.5
 74
     0
  0
LTYPE
  5
FE5
330
5
100
AcDbSymbolTableRecord
100
AcDbLinetypeTableRecord
  2
Amconstr
 70
     0
  3
_______________________
 72
    65
 73
     2
 40
9999.0
 49
9999.0
 74
     0
 49
0.0
 74
     0
  0
LTYPE
  5
FE6
330
5
100
AcDbSymbolTableRecord
100
AcDbLinetypeTableRecord
  2
AM_ISO08W050x2
 70
     0
  3
__ . __ . __ . __ . __ . __
 72
    65
 73
     4
 40
9.0
 49
6.0
 74
     0
 49
-0.75
 74
     0
 49
1.5
 74
     0
 49
-0.75
 74
     0
  0
LTYPE
  5
FE7
330
5
100
AcDbSymbolTableRecord
100
AcDbLinetypeTableRecord
  2
AM_ISO02W050x2
 70
     0
  3
 _ _ _ _ _ _ _ _ _ _ _ _
 72
    65
 73
     2
 40
3.75
 49
3.0
 74
     0
 49
-0.75
 74
     0
  0
LTYPE
  5
FE8
330
5
100
AcDbSymbolTableRecord
100
AcDbLinetypeTableRecord
  2
Amzigzag
 70
     0
  3
/\/-/\/-/\/-/\/-/\/-/\/
 72
    65
 73
     2
 40
11.0001
 49
0.0001
 74
     4
 75
   135
340
B1
 46
0.04
 50
0.0
 44
0.0
 45
0.0
 49
-11.0
 74
     0
  0
LTYPE
  5
102A
330
5
100
AcDbSymbolTableRecord
100
AcDbLinetypeTableRecord
  2
ACISOWELD
 70
     0
  3
_ _ _ _ _
 72
    65
 73
     2
 40
2.0
 49
2.0
 74
     0
 49
-1.0
 74
     0
  0
LTYPE
  5
102D
330
5
100
AcDbSymbolTableRecord
100
AcDbLinetypeTableRecord
  2
ACISOTGB
 70
     0
  3
__ . . __ . .
 72
    65
 73
     6
 40
9.0
 49
4.0
 74
     0
 49
-1.0
 74
     0
 49
1.0
 74
     0
 49
-1.0
 74
     0
 49
1.0
 74
     0
 49
-1.0
 74
     0
  0
LTYPE
  5
102E
330
5
100
AcDbSymbolTableRecord
100
AcDbLinetypeTableRecord
  2
ACISOTGL
 70
     0
  3
_ _ _ _ _
 72
    65
 73
     2
 40
3.0
 49
2.0
 74
     0
 49
-1.0
 74
     0
  0
ENDTAB
  0
TABLE
  2
LAYER
  5
2
330
0
100
AcDbSymbolTable
 70
    12
  0
LAYER
  5
5C
330
2
100
AcDbSymbolTableRecord
100
AcDbLayerTableRecord
  2
0
 70
     0
 62
     7
  6
Continuous
370
    -3
390
F
  0
LAYER
  5
C6
330
2
100
AcDbSymbolTableRecord
100
AcDbLayerTableRecord
  2
Border_0
 70
     0
 62
     7
  6
Continuous
370
    35
390
F
  0
LAYER
  5
C7
330
2
100
AcDbSymbolTableRecord
100
AcDbLayerTableRecord
  2
Border_2
 70
     0
 62
     7
  6
Continuous
370
    35
390
F
  0
LAYER
  5
C9
330
2
100
AcDbSymbolTableRecord
100
AcDbLayerTableRecord
  2
Center Mark(ISO)
 70
     0
 62
     7
  6
DASH_DOT
370
    18
390
F
  0
LAYER
  5
CA
330
2
100
AcDbSymbolTableRecord
100
AcDbLayerTableRecord
  2
Centerline(ISO)
 70
     0
 62
     7
  6
DASH_DOT
370
    18
390
F
  0
LAYER
  5
CD
330
2
100
AcDbSymbolTableRecord
100
AcDbLayerTableRecord
  2
Dimensions(ISO)
 70
     0
 62
     7
  6
Continuous
370
    18
390
F
  0
LAYER
  5
CF
330
2
100
AcDbSymbolTableRecord
100
AcDbLayerTableRecord
  2
Hidden Edges(ISO)
 70
     0
 62
     7
  6
DASHED
370
    18
390
F
  0
LAYER
  5
D6
330
2
100
AcDbSymbolTableRecord
100
AcDbLayerTableRecord
  2
Sketch Geometry(ISO)
 70
     0
 62
     7
  6
Continuous
370
    35
390
F
  0
LAYER
  5
DC
330
2
100
AcDbSymbolTableRecord
100
AcDbLayerTableRecord
  2
Symbols(ISO)
 70
     0
 62
     7
  6
Continuous
370
    18
390
F
  0
LAYER
  5
E0
330
2
100
AcDbSymbolTableRecord
100
AcDbLayerTableRecord
  2
Visible Edges(ISO)
 70
     0
 62
     7
  6
Continuous
370
    35
390
F
  0
LAYER
  5
23E
330
2
100
AcDbSymbolTableRecord
100
AcDbLayerTableRecord
  2
Defpoints
 70
     0
 62
     7
  6
Continuous
290
     0
370
    -3
390
F
  0
ENDTAB
  0
TABLE
  2
STYLE
  5
3
330
0
100
AcDbSymbolTable
 70
    16
  0
STYLE
  5
5D
330
3
100
AcDbSymbolTableRecord
100
AcDbTextStyleTableRecord
  2
Standard
 70
     0
 40
0.0
 41
1.0
 50
0.0
 71
     0
 42
0.2
  3
ARIAL.TTF
  4

1001
ACAD
1000
Arial
1071
      256
  0
STYLE
  5
B1
330
3
100
AcDbSymbolTableRecord
100
AcDbTextStyleTableRecord
  2

 70
     1
 40
0.0
 41
1.0
 50
0.0
 71
     0
 42
0.2
  3
ltypeshp.shx
  4

  0
STYLE
  5
E5
330
3
100
AcDbSymbolTableRecord
100
AcDbTextStyleTableRecord
  2
Border_1
 70
     0
 40
0.0
 41
1.0
 50
0.0
 71
     0
 42
0.2
  3
ARIAL.TTF
  4

1001
ACAD
1000
Arial
1071
      256
  0
STYLE
  5
EE
330
3
100
AcDbSymbolTableRecord
100
AcDbTextStyleTableRecord
  2
VBG-RF-ISO
 70
     0
 40
0.0
 41
1.0
 50
0.0
 71
     0
 42
0.2
  3
ARIAL.TTF
  4

1001
ACAD
1000
Arial
1071
      256
  0
STYLE
  5
1024
330
3
100
AcDbSymbolTableRecord
100
AcDbTextStyleTableRecord
  2
ACISOTS
 70
     0
 40
1.0
 41
1.0
 50
0.0
 71
     0
 42
2.5
  3
isocp.shx
  4

  0
STYLE
  5
1028
330
3
100
AcDbSymbolTableRecord
100
AcDbTextStyleTableRecord
  2
ACISOGDT
 70
     0
 40
0.0
 41
1.0
 50
0.0
 71
     0
 42
2.5
  3
amgdt.shx
  4

  0
ENDTAB
  0
TABLE
  2
VIEW
  5
6
330
0
100
AcDbSymbolTable
 70
     0
  0
ENDTAB
  0
TABLE
  2
UCS
  5
7
330
0
100
AcDbSymbolTable
 70
     0
  0
ENDTAB
  0
TABLE
  2
APPID
  5
9
330
0
100
AcDbSymbolTable
 70
    17
  0
APPID
  5
5E
330
9
100
AcDbSymbolTableRecord
100
AcDbRegAppTableRecord
  2
ACAD
 70
     0
  0
APPID
  5
66
330
9
100
AcDbSymbolTableRecord
100
AcDbRegAppTableRecord
  2
AcadAnnotative
 70
     0
  0
APPID
  5
70
330
9
100
AcDbSymbolTableRecord
100
AcDbRegAppTableRecord
  2
ACAD_MLEADERVER
 70
     0
  0
APPID
  5
115
330
9
100
AcDbSymbolTableRecord
100
AcDbRegAppTableRecord
  2
AcadAnnoPO
 70
     0
  0
APPID
  5
F50
330
9
100
AcDbSymbolTableRecord
100
AcDbRegAppTableRecord
  2
ACAD_DSTYLE_DIMRADIAL_EXTENSION
 70
     0
  0
APPID
  5
FD3
330
9
100
AcDbSymbolTableRecord
100
AcDbRegAppTableRecord
  2
MCAD_NO_VIS
 70
     0
  0
APPID
  5
FD4
330
9
100
AcDbSymbolTableRecord
100
AcDbRegAppTableRecord
  2
ACAD_TEMP_GRAPHIC
 70
     0
  0
APPID
  5
FD5
330
9
100
AcDbSymbolTableRecord
100
AcDbRegAppTableRecord
  2
ACATTRIBSERVICES
 70
     0
  0
APPID
  5
FD6
330
9
100
AcDbSymbolTableRecord
100
AcDbRegAppTableRecord
  2
GENIUS_GENREC_14
 70
     0
  0
APPID
  5
FD7
330
9
100
AcDbSymbolTableRecord
100
AcDbRegAppTableRecord
  2
GENIUS_GENODEF_13
 70
     0
  0
APPID
  5
FD8
330
9
100
AcDbSymbolTableRecord
100
AcDbRegAppTableRecord
  2
GENIUS_GENOBJ-N-REC_13
 70
     0
  0
APPID
  5
FD9
330
9
100
AcDbSymbolTableRecord
100
AcDbRegAppTableRecord
  2
AD_DRAW
 70
     0
  0
APPID
  5
FDA
330
9
100
AcDbSymbolTableRecord
100
AcDbRegAppTableRecord
  2
DESIGNERASSEMBLIES
 70
     0
  0
APPID
  5
FDB
330
9
100
AcDbSymbolTableRecord
100
AcDbRegAppTableRecord
  2
ACADM_DIM_EDIT
 70
     0
  0
APPID
  5
FDC
330
9
100
AcDbSymbolTableRecord
100
AcDbRegAppTableRecord
  2
AMDT_DM_ADJ
 70
     0
  0
APPID
  5
FDD
330
9
100
AcDbSymbolTableRecord
100
AcDbRegAppTableRecord
  2
ACAD_DSTYLE_DIMARC_LENGTH_SYMBOL
 70
     0
  0
APPID
  5
FDE
330
9
100
AcDbSymbolTableRecord
100
AcDbRegAppTableRecord
  2
ACAD_DSTYLE_DIMJOGGED_JOGANGLE_SYMBOL
 70
     0
  0
ENDTAB
  0
TABLE
  2
DIMSTYLE
  5
A
330
0
100
AcDbSymbolTable
 70
    18
100
AcDbDimStyleTable
 71
     2
340
FE
340
60
  0
DIMSTYLE
105
60
330
A
100
AcDbSymbolTableRecord
100
AcDbDimStyleTableRecord
  2
Standard
 70
     0
340
5D
  0
DIMSTYLE
105
FE
102
{ACAD_REACTORS
330
23D
330
31A
330
414
330
4EB
330
5C2
330
699
330
793
330
86A
330
946
330
A40
330
B28
330
C0A
330
CFD
330
DD9
330
EB0
102
}
330
A
100
AcDbSymbolTableRecord
100
AcDbDimStyleTableRecord
  2
VBG-RF-ISO
 70
     0
 40
4.0
 41
4.0
 42
1.0
 43
10.0
 44
2.0
 45
0.00000001
 46
12.0
 73
     0
 77
     1
 78
     8
 79
     2
140
3.5
143
0.03937
147
0.4
171
     3
172
     1
176
     7
177
     7
178
   256
179
     2
271
     2
272
     2
274
     3
278
    44
284
     8
286
     8
340
EE
341
F0
342
F0
371
    15
372
    15
  0
DIMSTYLE
105
103F
330
A
100
AcDbSymbolTableRecord
100
AcDbDimStyleTableRecord
  2
AM_ISO
 70
     0
  4
"
 41
5.0
 42
1.0
 43
10.0
 44
2.0
 47
0.1
 48
0.1
 73
     0
 74
     0
 77
     1
 78
     8
 79
     2
140
3.5
141
0.0
143
0.0393701
146
0.71
147
1.5
172
     1
176
   256
177
   256
178
     2
271
     2
272
     2
283
     0
284
     8
340
5D
371
    -1
372
    -1
1001
ACAD_DSTYLE_DIMJOGGED_JOGANGLE_SYMBOL
1070
   384
1040
0.7853981633974483
1001
ACAD_DSTYLE_DIMARC_LENGTH_SYMBOL
1070
   379
1070
     1
  0
DIMSTYLE
105
1040
330
A
100
AcDbSymbolTableRecord
100
AcDbDimStyleTableRecord
  2
AM_ISO$0
 70
     0
  4
"
 41
5.0
 42
1.0
 43
10.0
 44
2.0
 47
0.1
 48
0.1
 73
     0
 74
     0
 77
     1
 78
     8
 79
     2
140
3.5
141
0.0
143
0.0393701
146
0.71
147
1.5
172
     1
176
   256
177
   256
178
     2
271
     2
272
     2
283
     0
284
     8
340
5D
371
    -1
372
    -1
1001
ACAD_DSTYLE_DIMJOGGED_JOGANGLE_SYMBOL
1070
   384
1040
0.7853981633974483
1001
ACAD_DSTYLE_DIMARC_LENGTH_SYMBOL
1070
   379
1070
     1
  0
DIMSTYLE
105
1041
330
A
100
AcDbSymbolTableRecord
100
AcDbDimStyleTableRecord
  2
AM_ISO$2
 70
     0
  4
"
 41
5.0
 42
1.0
 43
10.0
 44
2.0
 47
0.1
 48
0.1
 73
     0
 74
     0
 77
     1
 78
     8
 79
     2
140
3.5
141
0.0
143
0.0393701
146
0.71
147
1.5
172
     1
176
   256
177
   256
178
     2
271
     2
272
     2
283
     0
284
     8
340
5D
371
    -1
372
    -1
1001
ACAD_DSTYLE_DIMJOGGED_JOGANGLE_SYMBOL
1070
   384
1040
0.7853981633974483
1001
ACAD_DSTYLE_DIMARC_LENGTH_SYMBOL
1070
   379
1070
     1
  0
DIMSTYLE
105
1042
330
A
100
AcDbSymbolTableRecord
100
AcDbDimStyleTableRecord
  2
AM_ISO$3
 70
     0
  4
"
 41
5.0
 42
1.0
 43
10.0
 44
1.0
 47
0.1
 48
0.1
 73
     0
 77
     1
 78
     8
 79
     2
140
3.5
141
0.0
143
0.0393701
146
0.71
147
1.5
176
   256
177
   256
178
     2
271
     2
272
     2
283
     0
284
     8
288
     1
289
     0
340
5D
371
    -1
372
    -1
1001
ACAD_DSTYLE_DIMJOGGED_JOGANGLE_SYMBOL
1070
   384
1040
0.7853981633974483
1001
ACAD_DSTYLE_DIMARC_LENGTH_SYMBOL
1070
   379
1070
     1
  0
DIMSTYLE
105
1043
330
A
100
AcDbSymbolTableRecord
100
AcDbDimStyleTableRecord
  2
AM_ISO$4
 70
     0
  4
"
 41
5.0
 42
1.0
 43
10.0
 44
1.0
 47
0.1
 48
0.1
 73
     0
 77
     1
 78
     8
 79
     2
140
3.5
141
0.0
143
0.0393701
146
0.71
147
1.5
176
   256
177
   256
178
     2
271
     2
272
     2
283
     0
284
     8
288
     1
289
     0
340
5D
371
    -1
372
    -1
1001
ACAD_DSTYLE_DIMJOGGED_JOGANGLE_SYMBOL
1070
   384
1040
0.7853981633974483
1001
ACAD_DSTYLE_DIMARC_LENGTH_SYMBOL
1070
   379
1070
     1
  0
DIMSTYLE
105
1044
330
A
100
AcDbSymbolTableRecord
100
AcDbDimStyleTableRecord
  2
AM_ISO$6
 70
     0
  4
"
 41
2.5
 42
1.0
 43
10.0
 44
1.0
 47
0.1
 48
0.1
 73
     0
 74
     0
 78
     8
 79
     2
140
3.5
141
0.0
143
0.0393701
146
0.71
147
1.5
172
     1
176
   256
177
   256
178
     2
271
     2
272
     3
274
     4
283
     0
284
     8
340
5D
371
    -1
372
    -1
1001
ACAD_DSTYLE_DIMJOGGED_JOGANGLE_SYMBOL
1070
   384
1040
0.7853981633974483
1001
ACAD_DSTYLE_DIMARC_LENGTH_SYMBOL
1070
   379
1070
     1
  0
DIMSTYLE
105
1045
330
A
100
AcDbSymbolTableRecord
100
AcDbDimStyleTableRecord
  2
AM_ISO$7
 70
     0
  4
"
 41
5.0
 42
1.0
 43
10.0
 44
1.0
 47
0.1
 48
0.1
 73
     0
 74
     0
 77
     1
 78
     8
 79
     2
140
5.0
141
0.0
143
0.0393701
146
0.71
147
1.5
172
     1
176
   256
177
   256
178
     2
271
     2
272
     2
283
     0
284
     8
340
5D
371
    -1
372
    -1
1001
ACAD_DSTYLE_DIMJOGGED_JOGANGLE_SYMBOL
1070
   384
1040
0.7853981633974483
1001
ACAD_DSTYLE_DIMARC_LENGTH_SYMBOL
1070
   379
1070
     1
  0
DIMSTYLE
105
1046
330
A
100
AcDbSymbolTableRecord
100
AcDbDimStyleTableRecord
  2
AM_ISO$SF
 70
     0
  4
"
 41
2.5
 42
1.0
 43
10.0
 44
1.0
 47
0.1
 48
0.1
 73
     0
 74
     0
 75
     1
 76
     1
 77
     1
 78
     8
 79
     2
140
3.5
141
0.0
143
0.0393701
146
0.71
147
1.5
172
     1
176
   256
177
   256
178
     2
271
     2
272
     3
274
     4
283
     0
284
     8
340
5D
371
    -1
372
    -1
1001
ACAD_DSTYLE_DIMJOGGED_JOGANGLE_SYMBOL
1070
   384
1040
0.7853981633974483
1001
ACAD_DSTYLE_DIMARC_LENGTH_SYMBOL
1070
   379
1070
     1
  0
DIMSTYLE
105
1047
330
A
100
AcDbSymbolTableRecord
100
AcDbDimStyleTableRecord
  2
AM_ISO$SH
 70
     0
  4
"
 41
2.5
 42
1.0
 43
10.0
 44
1.0
 47
0.1
 48
0.1
 73
     0
 74
     0
 75
     1
 76
     1
 77
     1
 78
     8
 79
     2
140
3.5
141
0.0
143
0.0393701
144
2.0
146
0.71
147
1.5
172
     1
173
     1
176
   256
177
   256
178
     2
271
     2
272
     3
274
     4
283
     0
284
     8
340
5D
343
1048
371
    -1
372
    -1
1001
ACAD_DSTYLE_DIMJOGGED_JOGANGLE_SYMBOL
1070
   384
1040
0.7853981633974483
1001
ACAD_DSTYLE_DIMARC_LENGTH_SYMBOL
1070
   379
1070
     1
  0
ENDTAB
  0
TABLE
  2
BLOCK_RECORD
  5
1
330
0
100
AcDbSymbolTable
 70
    29
  0
BLOCK_RECORD
  5
75
102
{ACAD_XDICTIONARY
360
F62
102
}
330
1
100
AcDbSymbolTableRecord
100
AcDbBlockTableRecord
  2
*Model_Space
340
78
  0
BLOCK_RECORD
  5
71
330
1
100
AcDbSymbolTableRecord
100
AcDbBlockTableRecord
  2
*Paper_Space
340
74
  0
BLOCK_RECORD
  5
79
330
1
100
AcDbSymbolTableRecord
100
AcDbBlockTableRecord
  2
*Paper_Space0
340
7C
  0
BLOCK_RECORD
  5
F0
330
1
100
AcDbSymbolTableRecord
100
AcDbBlockTableRecord
  2
Filled-1
340
0
102
{BLKREFS
331
314
331
315
331
40E
331
40F
331
4E5
331
4E6
331
5BC
331
5BD
331
693
331
694
331
786
331
787
331
864
331
865
331
940
331
941
331
A3A
331
A3B
331
B22
331
B23
331
C04
331
C05
331
CF7
331
CF8
331
DD3
331
DD4
331
EAA
331
EAB
331
F5C
102
}
  0
BLOCK_RECORD
  5
160
330
1
100
AcDbSymbolTableRecord
100
AcDbBlockTableRecord
  2
Borders Default Border
340
0
102
{BLKREFS
331
18E
102
}
  0
BLOCK_RECORD
  5
18F
330
1
100
AcDbSymbolTableRecord
100
AcDbBlockTableRecord
  2
Title Blocks Info VBG
340
0
102
{BLKREFS
331
1D6
102
}
  0
BLOCK_RECORD
  5
23F
330
1
100
AcDbSymbolTableRecord
100
AcDbBlockTableRecord
  2
*D12
340
0
  0
BLOCK_RECORD
  5
31B
330
1
100
AcDbSymbolTableRecord
100
AcDbBlockTableRecord
  2
*D13
340
0
  0
BLOCK_RECORD
  5
415
330
1
100
AcDbSymbolTableRecord
100
AcDbBlockTableRecord
  2
*D14
340
0
  0
BLOCK_RECORD
  5
4EC
330
1
100
AcDbSymbolTableRecord
100
AcDbBlockTableRecord
  2
*D15
340
0
  0
BLOCK_RECORD
  5
5C3
330
1
100
AcDbSymbolTableRecord
100
AcDbBlockTableRecord
  2
*D16
340
0
  0
BLOCK_RECORD
  5
69A
330
1
100
AcDbSymbolTableRecord
100
AcDbBlockTableRecord
  2
*D17
340
0
  0
BLOCK_RECORD
  5
794
330
1
100
AcDbSymbolTableRecord
100
AcDbBlockTableRecord
  2
*D18
340
0
  0
BLOCK_RECORD
  5
86B
330
1
100
AcDbSymbolTableRecord
100
AcDbBlockTableRecord
  2
*D19
340
0
  0
BLOCK_RECORD
  5
947
330
1
100
AcDbSymbolTableRecord
100
AcDbBlockTableRecord
  2
*D20
340
0
  0
BLOCK_RECORD
  5
A41
330
1
100
AcDbSymbolTableRecord
100
AcDbBlockTableRecord
  2
*D21
340
0
  0
BLOCK_RECORD
  5
B29
330
1
100
AcDbSymbolTableRecord
100
AcDbBlockTableRecord
  2
*D22
340
0
  0
BLOCK_RECORD
  5
C0B
330
1
100
AcDbSymbolTableRecord
100
AcDbBlockTableRecord
  2
*D23
340
0
  0
BLOCK_RECORD
  5
CFE
330
1
100
AcDbSymbolTableRecord
100
AcDbBlockTableRecord
  2
*D24
340
0
  0
BLOCK_RECORD
  5
DDA
330
1
100
AcDbSymbolTableRecord
100
AcDbBlockTableRecord
  2
*D25
340
0
  0
BLOCK_RECORD
  5
EB1
330
1
100
AcDbSymbolTableRecord
100
AcDbBlockTableRecord
  2
*D26
340
0
  0
BLOCK_RECORD
  5
1048
330
1
100
AcDbSymbolTableRecord
100
AcDbBlockTableRecord
  2
GENAXEH
340
0
  0
ENDTAB
  0
ENDSEC
  0
SECTION
  2
BLOCKS
  0
BLOCK
  5
76
330
75
100
AcDbEntity
  8
0
100
AcDbBlockBegin
  2
*Model_Space
 70
     0
 10
0.0
 20
0.0
 30
0.0
  3
*Model_Space
  1

  0
ENDBLK
  5
77
330
75
100
AcDbEntity
  8
0
100
AcDbBlockEnd
  0
BLOCK
  5
72
330
71
100
AcDbEntity
 67
     1
  8
0
100
AcDbBlockBegin
  2
*Paper_Space
 70
     0
 10
0.0
 20
0.0
 30
0.0
  3
*Paper_Space
  1

  0
ENDBLK
  5
73
330
71
100
AcDbEntity
 67
     1
  8
0
100
AcDbBlockEnd
  0
BLOCK
  5
7A
330
79
100
AcDbEntity
 67
     1
  8
0
100
AcDbBlockBegin
  2
*Paper_Space0
 70
     0
 10
0.0
 20
0.0
 30
0.0
  3
*Paper_Space0
  1

  0
ENDBLK
  5
7B
330
79
100
AcDbEntity
 67
     1
  8
0
100
AcDbBlockEnd
  0
BLOCK
  5
F1
330
F0
100
AcDbEntity
  8
0
100
AcDbBlockBegin
  2
Filled-1
 70
     0
 10
0.0
 20
0.0
 30
0.0
  3
Filled-1
  1

  0
LINE
  5
F3
330
F0
100
AcDbEntity
  8
0
 62
     0
100
AcDbLine
 10
-1.0
 20
0.0
 30
0.0
 11
0.0
 21
0.0
 31
0.0
  0
POLYLINE
  5
F4
330
F0
100
AcDbEntity
  8
0
 62
     0
100
AcDb2dPolyline
 66
     1
 10
0.0
 20
0.0
 30
0.0
 70
   128
  0
VERTEX
  5
F5
330
F4
100
AcDbEntity
  8
0
 62
     0
100
AcDbVertex
100
AcDb2dVertex
 10
-1.0
 20
-0.15625
 30
0.0
  0
VERTEX
  5
F6
330
F4
100
AcDbEntity
  8
0
 62
     0
100
AcDbVertex
100
AcDb2dVertex
 10
0.0
 20
0.0
 30
0.0
  0
VERTEX
  5
F8
330
F4
100
AcDbEntity
  8
0
 62
     0
100
AcDbVertex
100
AcDb2dVertex
 10
-1.0
 20
0.15625
 30
0.0
  0
VERTEX
  5
F9
330
F4
100
AcDbEntity
  8
0
 62
     0
100
AcDbVertex
100
AcDb2dVertex
 10
-1.0
 20
-0.15625
 30
0.0
  0
SEQEND
  5
F7
330
F4
100
AcDbEntity
  8
0
 62
     0
  0
SOLID
  5
FA
330
F0
100
AcDbEntity
  8
0
 62
     0
100
AcDbTrace
 10
-1.0
 20
-0.15625
 30
0.0
 11
0.0
 21
0.0
 31
0.0
 12
-1.0
 22
0.15625
 32
0.0
 13
-1.0
 23
-0.15625
 33
0.0
  0
LINE
  5
FB
330
F0
100
AcDbEntity
  8
0
 62
     0
100
AcDbLine
 10
-1.0
 20
-0.15625
 30
0.0
 11
0.0
 21
0.0
 31
0.0
  0
LINE
  5
FC
330
F0
100
AcDbEntity
  8
0
 62
     0
100
AcDbLine
 10
0.0
 20
0.0
 30
0.0
 11
-1.0
 21
0.15625
 31
0.0
  0
LINE
  5
FD
330
F0
100
AcDbEntity
  8
0
 62
     0
100
AcDbLine
 10
-1.0
 20
0.15625
 30
0.0
 11
-1.0
 21
-0.15625
 31
0.0
  0
ENDBLK
  5
F2
330
F0
100
AcDbEntity
  8
0
100
AcDbBlockEnd
  0
BLOCK
  5
161
330
160
100
AcDbEntity
  8
0
100
AcDbBlockBegin
  2
Borders Default Border
 70
     0
 10
0.0
 20
0.0
 30
0.0
  3
Borders Default Border
  1

  0
POLYLINE
  5
163
330
160
100
AcDbEntity
  8
Border_0
100
AcDb2dPolyline
 66
     1
 10
0.0
 20
0.0
 30
0.0
 70
   128
  0
VERTEX
  5
164
330
163
100
AcDbEntity
  8
Border_0
100
AcDbVertex
100
AcDb2dVertex
 10
10.0
 20
10.0
 30
0.0
  0
VERTEX
  5
165
330
163
100
AcDbEntity
  8
Border_0
100
AcDbVertex
100
AcDb2dVertex
 10
10.0
 20
287.0000076293946
 30
0.0
  0
VERTEX
  5
167
330
163
100
AcDbEntity
  8
Border_0
100
AcDbVertex
100
AcDb2dVertex
 10
410.0
 20
287.0000076293946
 30
0.0
  0
VERTEX
  5
168
330
163
100
AcDbEntity
  8
Border_0
100
AcDbVertex
100
AcDb2dVertex
 10
410.0
 20
10.0
 30
0.0
  0
VERTEX
  5
169
330
163
100
AcDbEntity
  8
Border_0
100
AcDbVertex
100
AcDb2dVertex
 10
10.0
 20
10.0
 30
0.0
  0
SEQEND
  5
166
330
163
100
AcDbEntity
  8
Border_0
  0
LINE
  5
16A
330
160
100
AcDbEntity
  8
Border_0
100
AcDbLine
 10
70.0
 20
10.0
 30
0.0
 11
70.0
 21
6.100000143051147
 31
0.0
  0
LINE
  5
16B
330
160
100
AcDbEntity
  8
Border_0
100
AcDbLine
 10
70.0
 20
287.0000076293946
 30
0.0
 11
70.0
 21
290.9000015258789
 31
0.0
  0
LINE
  5
16C
330
160
100
AcDbEntity
  8
Border_0
100
AcDbLine
 10
140.0
 20
10.0
 30
0.0
 11
140.0
 21
6.100000143051147
 31
0.0
  0
LINE
  5
16D
330
160
100
AcDbEntity
  8
Border_0
100
AcDbLine
 10
140.0
 20
287.0000076293946
 30
0.0
 11
140.0
 21
290.9000015258789
 31
0.0
  0
LINE
  5
16E
330
160
100
AcDbEntity
  8
Border_0
100
AcDbLine
 10
210.0
 20
10.0
 30
0.0
 11
210.0
 21
6.100000143051147
 31
0.0
  0
LINE
  5
16F
330
160
100
AcDbEntity
  8
Border_0
100
AcDbLine
 10
210.0
 20
287.0000076293946
 30
0.0
 11
210.0
 21
290.9000015258789
 31
0.0
  0
LINE
  5
170
330
160
100
AcDbEntity
  8
Border_0
100
AcDbLine
 10
280.0
 20
10.0
 30
0.0
 11
280.0
 21
6.100000143051147
 31
0.0
  0
LINE
  5
171
330
160
100
AcDbEntity
  8
Border_0
100
AcDbLine
 10
280.0
 20
287.0000076293946
 30
0.0
 11
280.0
 21
290.9000015258789
 31
0.0
  0
LINE
  5
172
330
160
100
AcDbEntity
  8
Border_0
100
AcDbLine
 10
350.0
 20
10.0
 30
0.0
 11
350.0
 21
6.100000143051147
 31
0.0
  0
LINE
  5
173
330
160
100
AcDbEntity
  8
Border_0
100
AcDbLine
 10
350.0
 20
287.0000076293946
 30
0.0
 11
350.0
 21
290.9000015258789
 31
0.0
  0
MTEXT
  5
174
330
160
100
AcDbEntity
  8
Border_2
100
AcDbMText
 10
34.19801688358895
 20
287.4
 30
0.0
 40
3.499999940395355
 41
0.0
 71
     7
 72
     1
  1
1
  7
Border_1
 73
     1
 44
1.0
1001
ACAD
1000
MTEXTBEGIN
1070
    73
1070
     1
1070
    44
1040
1.0
1070
    74
1070
     0
1000
MTEXTEND
  0
MTEXT
  5
175
330
160
100
AcDbEntity
  8
Border_2
100
AcDbMText
 10
34.19801688358895
 20
6.100000059604643
 30
0.0
 40
3.499999940395355
 41
0.0
 71
     7
 72
     1
  1
1
  7
Border_1
 73
     1
 44
1.0
1001
ACAD
1000
MTEXTBEGIN
1070
    73
1070
     1
1070
    44
1040
1.0
1070
    74
1070
     0
1000
MTEXTEND
  0
MTEXT
  5
176
330
160
100
AcDbEntity
  8
Border_2
100
AcDbMText
 10
103.7892158440201
 20
287.4
 30
0.0
 40
3.499999940395355
 41
0.0
 71
     7
 72
     1
  1
2
  7
Border_1
 73
     1
 44
1.0
1001
ACAD
1000
MTEXTBEGIN
1070
    73
1070
     1
1070
    44
1040
1.0
1070
    74
1070
     0
1000
MTEXTEND
  0
MTEXT
  5
177
330
160
100
AcDbEntity
  8
Border_2
100
AcDbMText
 10
103.7892158440201
 20
6.100000059604643
 30
0.0
 40
3.499999940395355
 41
0.0
 71
     7
 72
     1
  1
2
  7
Border_1
 73
     1
 44
1.0
1001
ACAD
1000
MTEXTBEGIN
1070
    73
1070
     1
1070
    44
1040
1.0
1070
    74
1070
     0
1000
MTEXTEND
  0
MTEXT
  5
178
330
160
100
AcDbEntity
  8
Border_2
100
AcDbMText
 10
173.8564160149081
 20
287.3413109757006
 30
0.0
 40
3.499999940395355
 41
0.0
 71
     7
 72
     1
  1
3
  7
Border_1
 73
     1
 44
1.0
1001
ACAD
1000
MTEXTBEGIN
1070
    73
1070
     1
1070
    44
1040
1.0
1070
    74
1070
     0
1000
MTEXTEND
  0
MTEXT
  5
179
330
160
100
AcDbEntity
  8
Border_2
100
AcDbMText
 10
173.8564160149081
 20
6.041311035305261
 30
0.0
 40
3.499999940395355
 41
0.0
 71
     7
 72
     1
  1
3
  7
Border_1
 73
     1
 44
1.0
1001
ACAD
1000
MTEXTBEGIN
1070
    73
1070
     1
1070
    44
1040
1.0
1070
    74
1070
     0
1000
MTEXTEND
  0
MTEXT
  5
17A
330
160
100
AcDbEntity
  8
Border_2
100
AcDbMText
 10
243.7052156304101
 20
287.4
 30
0.0
 40
3.499999940395355
 41
0.0
 71
     7
 72
     1
  1
4
  7
Border_1
 73
     1
 44
1.0
1001
ACAD
1000
MTEXTBEGIN
1070
    73
1070
     1
1070
    44
1040
1.0
1070
    74
1070
     0
1000
MTEXTEND
  0
MTEXT
  5
17B
330
160
100
AcDbEntity
  8
Border_2
100
AcDbMText
 10
243.7052156304101
 20
6.100000059604643
 30
0.0
 40
3.499999940395355
 41
0.0
 71
     7
 72
     1
  1
4
  7
Border_1
 73
     1
 44
1.0
1001
ACAD
1000
MTEXTBEGIN
1070
    73
1070
     1
1070
    44
1040
1.0
1070
    74
1070
     0
1000
MTEXTEND
  0
MTEXT
  5
17C
330
160
100
AcDbEntity
  8
Border_2
100
AcDbMText
 10
313.8536160077878
 20
287.3413109757006
 30
0.0
 40
3.499999940395355
 41
0.0
 71
     7
 72
     1
  1
5
  7
Border_1
 73
     1
 44
1.0
1001
ACAD
1000
MTEXTBEGIN
1070
    73
1070
     1
1070
    44
1040
1.0
1070
    74
1070
     0
1000
MTEXTEND
  0
MTEXT
  5
17D
330
160
100
AcDbEntity
  8
Border_2
100
AcDbMText
 10
313.8536160077878
 20
6.041311035305261
 30
0.0
 40
3.499999940395355
 41
0.0
 71
     7
 72
     1
  1
5
  7
Border_1
 73
     1
 44
1.0
1001
ACAD
1000
MTEXTBEGIN
1070
    73
1070
     1
1070
    44
1040
1.0
1070
    74
1070
     0
1000
MTEXTEND
  0
MTEXT
  5
17E
330
160
100
AcDbEntity
  8
Border_2
100
AcDbMText
 10
383.8340159579455
 20
287.3413109757006
 30
0.0
 40
3.499999940395355
 41
0.0
 71
     7
 72
     1
  1
6
  7
Border_1
 73
     1
 44
1.0
1001
ACAD
1000
MTEXTBEGIN
1070
    73
1070
     1
1070
    44
1040
1.0
1070
    74
1070
     0
1000
MTEXTEND
  0
MTEXT
  5
17F
330
160
100
AcDbEntity
  8
Border_2
100
AcDbMText
 10
383.8340159579455
 20
6.041311035305261
 30
0.0
 40
3.499999940395355
 41
0.0
 71
     7
 72
     1
  1
6
  7
Border_1
 73
     1
 44
1.0
1001
ACAD
1000
MTEXTBEGIN
1070
    73
1070
     1
1070
    44
1040
1.0
1070
    74
1070
     0
1000
MTEXTEND
  0
LINE
  5
180
330
160
100
AcDbEntity
  8
Border_0
100
AcDbLine
 10
10.0
 20
74.25000190734862
 30
0.0
 11
6.100000143051147
 21
74.25000190734862
 31
0.0
  0
LINE
  5
181
330
160
100
AcDbEntity
  8
Border_0
100
AcDbLine
 10
410.0
 20
74.25000190734862
 30
0.0
 11
413.8999938964842
 21
74.25000190734862
 31
0.0
  0
LINE
  5
182
330
160
100
AcDbEntity
  8
Border_0
100
AcDbLine
 10
10.0
 20
148.5000038146973
 30
0.0
 11
6.100000143051147
 21
148.5000038146973
 31
0.0
  0
LINE
  5
183
330
160
100
AcDbEntity
  8
Border_0
100
AcDbLine
 10
410.0
 20
148.5000038146973
 30
0.0
 11
413.8999938964842
 21
148.5000038146973
 31
0.0
  0
LINE
  5
184
330
160
100
AcDbEntity
  8
Border_0
100
AcDbLine
 10
10.0
 20
222.7499961853027
 30
0.0
 11
6.100000143051147
 21
222.7499961853027
 31
0.0
  0
LINE
  5
185
330
160
100
AcDbEntity
  8
Border_0
100
AcDbLine
 10
410.0
 20
222.7499961853027
 30
0.0
 11
413.8999938964842
 21
222.7499961853027
 31
0.0
  0
MTEXT
  5
186
330
160
100
AcDbEntity
  8
Border_2
100
AcDbMText
 10
6.206442621438576
 20
258.1250000298024
 30
0.0
 40
3.499999940395355
 41
0.0
 71
     7
 72
     1
  1
A
  7
Border_1
 73
     1
 44
1.0
1001
ACAD
1000
MTEXTBEGIN
1070
    73
1070
     1
1070
    44
1040
1.0
1070
    74
1070
     0
1000
MTEXTEND
  0
MTEXT
  5
187
330
160
100
AcDbEntity
  8
Border_2
100
AcDbMText
 10
410.5064425618338
 20
258.1250000298024
 30
0.0
 40
3.499999940395355
 41
0.0
 71
     7
 72
     1
  1
A
  7
Border_1
 73
     1
 44
1.0
1001
ACAD
1000
MTEXTBEGIN
1070
    73
1070
     1
1070
    44
1040
1.0
1070
    74
1070
     0
1000
MTEXTEND
  0
MTEXT
  5
188
330
160
100
AcDbEntity
  8
Border_2
100
AcDbMText
 10
6.593912902519599
 20
183.8750000298023
 30
0.0
 40
3.499999940395355
 41
0.0
 71
     7
 72
     1
  1
B
  7
Border_1
 73
     1
 44
1.0
1001
ACAD
1000
MTEXTBEGIN
1070
    73
1070
     1
1070
    44
1040
1.0
1070
    74
1070
     0
1000
MTEXTEND
  0
MTEXT
  5
189
330
160
100
AcDbEntity
  8
Border_2
100
AcDbMText
 10
410.8939128429148
 20
183.8750000298023
 30
0.0
 40
3.499999940395355
 41
0.0
 71
     7
 72
     1
  1
B
  7
Border_1
 73
     1
 44
1.0
1001
ACAD
1000
MTEXTBEGIN
1070
    73
1070
     1
1070
    44
1040
1.0
1070
    74
1070
     0
1000
MTEXTEND
  0
MTEXT
  5
18A
330
160
100
AcDbEntity
  8
Border_2
100
AcDbMText
 10
6.338794476247102
 20
109.566311005503
 30
0.0
 40
3.499999940395355
 41
0.0
 71
     7
 72
     1
  1
C
  7
Border_1
 73
     1
 44
1.0
1001
ACAD
1000
MTEXTBEGIN
1070
    73
1070
     1
1070
    44
1040
1.0
1070
    74
1070
     0
1000
MTEXTEND
  0
MTEXT
  5
18B
330
160
100
AcDbEntity
  8
Border_2
100
AcDbMText
 10
410.6387944166423
 20
109.566311005503
 30
0.0
 40
3.499999940395355
 41
0.0
 71
     7
 72
     1
  1
C
  7
Border_1
 73
     1
 44
1.0
1001
ACAD
1000
MTEXTBEGIN
1070
    73
1070
     1
1070
    44
1040
1.0
1070
    74
1070
     0
1000
MTEXTEND
  0
MTEXT
  5
18C
330
160
100
AcDbEntity
  8
Border_2
100
AcDbMText
 10
6.478794832263827
 20
35.37500002980234
 30
0.0
 40
3.499999940395355
 41
0.0
 71
     7
 72
     1
  1
D
  7
Border_1
 73
     1
 44
1.0
1001
ACAD
1000
MTEXTBEGIN
1070
    73
1070
     1
1070
    44
1040
1.0
1070
    74
1070
     0
1000
MTEXTEND
  0
MTEXT
  5
18D
330
160
100
AcDbEntity
  8
Border_2
100
AcDbMText
 10
410.7787947726591
 20
35.37500002980234
 30
0.0
 40
3.499999940395355
 41
0.0
 71
     7
 72
     1
  1
D
  7
Border_1
 73
     1
 44
1.0
1001
ACAD
1000
MTEXTBEGIN
1070
    73
1070
     1
1070
    44
1040
1.0
1070
    74
1070
     0
1000
MTEXTEND
  0
ENDBLK
  5
162
330
160
100
AcDbEntity
  8
0
100
AcDbBlockEnd
  0
BLOCK
  5
190
330
18F
100
AcDbEntity
  8
0
100
AcDbBlockBegin
  2
Title Blocks Info VBG
 70
     2
 10
0.0
 20
0.0
 30
0.0
  3
Title Blocks Info VBG
  1

  0
IMAGE
  5
192
330
18F
100
AcDbEntity
  8
0
 92
      140
310
8C00000001000000840000000600000005000000C161B0C40900F53FA6A48135945B37400000000000000000D748B0C40900F53FEE41530FA88D42400000000000000000E85DC55F02483D40EE41530FA88D42400000000000000000775FC55F02483D40A6A48135945B37400000000000000000C161B0C40900F53FA6A481
310
35945B37400000000000000000
100
AcDbRasterImage
 90
        0
 10
1.312509315792439
 20
23.35773024001232
 30
0.0
 11
0.0941709660275468
 21
0.0
 31
0.0
 12
-0.0000000000000097
 22
0.0941709660275468
 32
0.0
 13
297.0
 23
146.0
340
194
 70
     7
280
     0
281
    50
282
    50
283
     0
360
195
 71
     1
 91
        2
 14
-0.5
 24
-0.5
 14
296.5
 24
145.5
  0
LINE
  5
196
330
18F
100
AcDbEntity
  8
Sketch Geometry(ISO)
  6
Continuous
 62
     7
370
    50
100
AcDbLine
 10
118.5000000152229
 20
22.5625004528757
 30
0.0
 11
118.5000000152229
 21
15.06250045287569
 31
0.0
  0
LINE
  5
197
330
18F
100
AcDbEntity
  8
Sketch Geometry(ISO)
  6
Continuous
 62
     7
370
    50
100
AcDbLine
 10
164.0000000152229
 20
30.06250045287572
 30
0.0
 11
164.0000000152229
 21
22.56250045287572
 31
0.0
  0
LINE
  5
198
330
18F
100
AcDbEntity
  8
Sketch Geometry(ISO)
  6
Continuous
 62
     7
370
    50
100
AcDbLine
 10
150.0000000152229
 20
22.56250045287572
 30
0.0
 11
150.0000000152229
 21
15.06250045287572
 31
0.0
  0
LINE
  5
199
330
18F
100
AcDbEntity
  8
Sketch Geometry(ISO)
  6
Continuous
 62
     7
370
    50
100
AcDbLine
 10
132.0000000152229
 20
22.5625004528757
 30
0.0
 11
132.0000000152229
 21
15.06250045287569
 31
0.0
  0
LINE
  5
19A
330
18F
100
AcDbEntity
  8
Sketch Geometry(ISO)
  6
Continuous
 62
     7
370
    50
100
AcDbLine
 10
132.0000000152229
 20
37.56250045287571
 30
0.0
 11
132.0000000152229
 21
30.06250045287572
 31
0.0
  0
LINE
  5
19B
330
18F
100
AcDbEntity
  8
Sketch Geometry(ISO)
  6
Continuous
 62
     7
370
    50
100
AcDbLine
 10
150.0000000152229
 20
37.56250045287571
 30
0.0
 11
150.0000000152229
 21
30.06250045287572
 31
0.0
  0
LINE
  5
19C
330
18F
100
AcDbEntity
  8
Sketch Geometry(ISO)
  6
Continuous
 62
     7
370
    50
100
AcDbLine
 10
177.0000000152229
 20
37.56250045287571
 30
0.0
 11
177.0000000152229
 21
15.06250045287572
 31
0.0
  0
LINE
  5
19D
330
18F
100
AcDbEntity
  8
Sketch Geometry(ISO)
  6
Continuous
 62
     7
370
    50
100
AcDbLine
 10
113.0000000152229
 20
15.06250045287569
 30
0.0
 11
113.0000000152229
 21
6.062500452875696
 31
0.0
  0
LINE
  5
19E
330
18F
100
AcDbEntity
  8
Sketch Geometry(ISO)
  6
Continuous
 62
     7
370
    50
100
AcDbLine
 10
105.0000000152229
 20
37.56250045287571
 30
0.0
 11
105.0000000152229
 21
0.0625004528756978
 31
0.0
  0
LINE
  5
19F
330
18F
100
AcDbEntity
  8
Sketch Geometry(ISO)
  6
Continuous
 62
     7
370
    50
100
AcDbLine
 10
190.0000000152229
 20
37.56250045287571
 30
0.0
 11
190.0000000152229
 21
0.0625004528756978
 31
0.0
  0
LINE
  5
1A0
330
18F
100
AcDbEntity
  8
Sketch Geometry(ISO)
  6
Continuous
 62
     7
370
    50
100
AcDbLine
 10
0.0
 20
37.56250045287571
 30
0.0
 11
0.0
 21
0.0625004528756978
 31
0.0
  0
LINE
  5
1A1
330
18F
100
AcDbEntity
  8
Sketch Geometry(ISO)
  6
Continuous
 62
     7
370
    50
100
AcDbLine
 10
0.0
 20
37.56250045287571
 30
0.0
 11
190.0000000152229
 21
37.56250045287571
 31
0.0
  0
LINE
  5
1A2
330
18F
100
AcDbEntity
  8
Sketch Geometry(ISO)
  6
Continuous
 62
     7
370
    50
100
AcDbLine
 10
190.0000000152229
 20
0.0625004528756961
 30
0.0
 11
0.0
 21
0.0625004528756961
 31
0.0
  0
LINE
  5
1A3
330
18F
100
AcDbEntity
  8
Sketch Geometry(ISO)
  6
Continuous
 62
     7
370
    50
100
AcDbLine
 10
105.0000000152229
 20
30.06250045287572
 30
0.0
 11
190.0000000152229
 21
30.06250045287572
 31
0.0
  0
LINE
  5
1A4
330
18F
100
AcDbEntity
  8
Sketch Geometry(ISO)
  6
Continuous
 62
     7
370
    50
100
AcDbLine
 10
0.0
 20
22.5625004528757
 30
0.0
 11
190.0000000152229
 21
22.56250045287571
 31
0.0
  0
LINE
  5
1A5
330
18F
100
AcDbEntity
  8
Sketch Geometry(ISO)
  6
Continuous
 62
     7
370
    50
100
AcDbLine
 10
105.0000000152229
 20
15.06250045287569
 30
0.0
 11
190.0000000152229
 21
15.06250045287572
 31
0.0
  0
LINE
  5
1A6
330
18F
100
AcDbEntity
  8
Sketch Geometry(ISO)
  6
Continuous
 62
     7
370
    50
100
AcDbLine
 10
105.0000000152229
 20
6.062500452875696
 30
0.0
 11
190.0000000152229
 21
6.062500452875725
 31
0.0
  0
LINE
  5
1A7
330
18F
100
AcDbEntity
  8
Sketch Geometry(ISO)
  6
Continuous
 62
     7
370
    50
100
AcDbLine
 10
135.3356039445255
 20
16.81632056351478
 30
0.0
 11
139.9884246386856
 21
16.1516318929205
 31
0.0
  0
CIRCLE
  5
1A8
330
18F
100
AcDbEntity
  8
Sketch Geometry(ISO)
  6
Continuous
 62
     7
370
    50
100
AcDbCircle
 10
144.6412453328457
 20
18.14569790470338
 30
0.0
 40
1.329377341188592
  0
LINE
  5
1A9
330
18F
100
AcDbEntity
  8
Sketch Geometry(ISO)
  6
Continuous
 62
     7
370
    50
100
AcDbLine
 10
144.6412453328457
 20
17.14866489881191
 30
0.0
 11
144.6412453328457
 21
15.48694322232617
 31
0.0
  0
LINE
  5
1AA
330
18F
100
AcDbEntity
  8
Sketch Geometry(ISO)
  6
Continuous
 62
     7
370
    50
100
AcDbLine
 10
144.3089009975486
 20
18.14569790470338
 30
0.0
 11
144.9735896681428
 21
18.14569790470338
 31
0.0
  0
LINE
  5
1AB
330
18F
100
AcDbEntity
  8
Sketch Geometry(ISO)
  6
Continuous
 62
     7
370
    50
100
AcDbLine
 10
144.6412453328457
 20
17.81335356940624
 30
0.0
 11
144.6412453328457
 21
18.47804224000052
 31
0.0
  0
LINE
  5
1AC
330
18F
100
AcDbEntity
  8
Sketch Geometry(ISO)
  6
Continuous
 62
     7
370
    50
100
AcDbLine
 10
143.6442123269542
 20
18.14569790470338
 30
0.0
 11
141.9824906504685
 21
18.14569790470338
 31
0.0
  0
LINE
  5
1AD
330
18F
100
AcDbEntity
  8
Sketch Geometry(ISO)
  6
Continuous
 62
     7
370
    50
100
AcDbLine
 10
144.6412453328457
 20
19.14273091059479
 30
0.0
 11
144.6412453328457
 21
20.80445258708053
 31
0.0
  0
CIRCLE
  5
1AE
330
18F
100
AcDbEntity
  8
Sketch Geometry(ISO)
  6
Continuous
 62
     7
370
    50
100
AcDbCircle
 10
144.6412453328457
 20
18.14569790470338
 30
0.0
 40
1.994066011782889
  0
LINE
  5
1AF
330
18F
100
AcDbEntity
  8
Sketch Geometry(ISO)
  6
Continuous
 62
     7
370
    50
100
AcDbLine
 10
145.6382783387371
 20
18.14569790470338
 30
0.0
 11
147.3000000152229
 21
18.14569790470338
 31
0.0
  0
LINE
  5
1B0
330
18F
100
AcDbEntity
  8
Sketch Geometry(ISO)
  6
Continuous
 62
     7
370
    50
100
AcDbLine
 10
138.659047297497
 20
18.14569790470338
 30
0.0
 11
140.6531133092799
 21
18.14569790470338
 31
0.0
  0
LINE
  5
1B1
330
18F
100
AcDbEntity
  8
Sketch Geometry(ISO)
  6
Continuous
 62
     7
370
    50
100
AcDbLine
 10
139.9884246386856
 20
16.1516318929205
 30
0.0
 11
139.9884246386856
 21
20.13976391648626
 31
0.0
  0
LINE
  5
1B2
330
18F
100
AcDbEntity
  8
Sketch Geometry(ISO)
  6
Continuous
 62
     7
370
    50
100
AcDbLine
 10
135.3356039445255
 20
19.47507524589198
 30
0.0
 11
135.3356039445255
 21
16.81632056351478
 31
0.0
  0
LINE
  5
1B3
330
18F
100
AcDbEntity
  8
Sketch Geometry(ISO)
  6
Continuous
 62
     7
370
    50
100
AcDbLine
 10
136.6649812857141
 20
18.14569790470338
 30
0.0
 11
134.6709152739312
 21
18.14569790470338
 31
0.0
  0
LINE
  5
1B4
330
18F
100
AcDbEntity
  8
Sketch Geometry(ISO)
  6
Continuous
 62
     7
370
    50
100
AcDbLine
 10
137.3296699563084
 20
18.14569790470338
 30
0.0
 11
137.9943586269027
 21
18.14569790470338
 31
0.0
  0
LINE
  5
1B5
330
18F
100
AcDbEntity
  8
Sketch Geometry(ISO)
  6
Continuous
 62
     7
370
    50
100
AcDbLine
 10
139.9884246386856
 20
20.13976391648626
 30
0.0
 11
135.3356039445255
 21
19.47507524589198
 31
0.0
  0
MTEXT
  5
1B6
330
18F
100
AcDbEntity
  8
Symbols(ISO)
 62
     7
100
AcDbMText
 10
106.0000000152229
 20
22.03620467174015
 30
0.0
 40
1.500000059604644
 41
24.51161254949069
 71
     1
 72
     1
  1
\fArial|b0|i0;\H1.5000;Sheet Size
 73
     2
 44
1.0
1001
ACAD
1000
MTEXTBEGIN
1070
    73
1070
     2
1070
    44
1040
1.0
1070
    74
1070
     0
1000
MTEXTEND
  0
MTEXT
  5
1B7
330
18F
100
AcDbEntity
  8
Symbols(ISO)
 62
     7
100
AcDbMText
 10
106.0000000152229
 20
5.036204671740136
 30
0.0
 40
1.500000059604644
 41
83.73132705688476
 71
     1
 72
     1
  1
\fArial|b0|i0;\H1.5000;This drawing is the property of VBG AB and is protected in accordence with prevailing law.  Changes must be made in CAD-program, this concerns both 2D & 3D.
 73
     2
 44
0.9959999322891237
1001
ACAD
1000
MTEXTBEGIN
1070
    73
1070
     2
1070
    44
1040
0.9959999322891237
1070
    74
1070
     0
1000
MTEXTEND
  0
MTEXT
  5
1B8
330
18F
100
AcDbEntity
  8
Symbols(ISO)
 62
     7
100
AcDbMText
 10
106.0000000152229
 20
37.03734803783854
 30
0.0
 40
1.500000059604644
 41
17.00823084704472
 71
     1
 72
     1
  1
\fArial|b0|i0;\H1.5000;Modified Date
 73
     2
 44
1.0
1001
ACAD
1000
MTEXTBEGIN
1070
    73
1070
     2
1070
    44
1040
1.0
1070
    74
1070
     0
1000
MTEXTEND
  0
MTEXT
  5
1B9
330
18F
100
AcDbEntity
  8
Symbols(ISO)
 62
     7
100
AcDbMText
 10
106.0000000152229
 20
29.55678392040693
 30
0.0
 40
1.500000059604644
 41
16.46699276025595
 71
     1
 72
     1
  1
\fArial|b0|i0;\H1.5000;3D Model No.
 73
     2
 44
1.0
1001
ACAD
1000
MTEXTBEGIN
1070
    73
1070
     2
1070
    44
1040
1.0
1070
    74
1070
     0
1000
MTEXTEND
  0
MTEXT
  5
1BA
330
18F
100
AcDbEntity
  8
Symbols(ISO)
 62
     7
100
AcDbMText
 10
106.0000000152229
 20
14.53620467174014
 30
0.0
 40
1.500000059604644
 41
24.66298806112707
 71
     1
 72
     1
  1
\fArial|b0|i0;\H1.5000;Stage
 73
     2
 44
1.0
1001
ACAD
1000
MTEXTBEGIN
1070
    73
1070
     2
1070
    44
1040
1.0
1070
    74
1070
     0
1000
MTEXTEND
  0
MTEXT
  5
1BB
330
18F
100
AcDbEntity
  8
Symbols(ISO)
 62
     7
100
AcDbMText
 10
114.0000000152229
 20
14.5625004528757
 30
0.0
 40
1.500000059604644
 41
25.44692151305663
 71
     1
 72
     1
  1
\fArial|b0|i0;\H1.5000;Drawing No.
 73
     2
 44
1.0
1001
ACAD
1000
MTEXTBEGIN
1070
    73
1070
     2
1070
    44
1040
1.0
1070
    74
1070
     0
1000
MTEXTEND
  0
MTEXT
  5
1BC
330
18F
100
AcDbEntity
  8
Symbols(ISO)
 62
     7
100
AcDbMText
 10
119.5000000152229
 20
22.03620467174014
 30
0.0
 40
1.500000059604644
 41
26.17142110475958
 71
     1
 72
     1
  1
\fArial|b0|i0;\H1.5000;Scale
 73
     2
 44
1.0
1001
ACAD
1000
MTEXTBEGIN
1070
    73
1070
     2
1070
    44
1040
1.0
1070
    74
1070
     0
1000
MTEXTEND
  0
MTEXT
  5
1BD
330
18F
100
AcDbEntity
  8
Symbols(ISO)
 62
     7
100
AcDbMText
 10
133.0000000152229
 20
22.06250045287569
 30
0.0
 40
1.500000059604644
 41
24.65799908114809
 71
     1
 72
     1
  1
\fArial|b0|i0;\H1.5000;Projection
 73
     2
 44
1.0
1001
ACAD
1000
MTEXTBEGIN
1070
    73
1070
     2
1070
    44
1040
1.0
1070
    74
1070
     0
1000
MTEXTEND
  0
MTEXT
  5
1BE
330
18F
100
AcDbEntity
  8
Symbols(ISO)
 62
     7
100
AcDbMText
 10
151.0000000152229
 20
22.03734803783856
 30
0.0
 40
1.500000059604644
 41
26.99058170822479
 71
     1
 72
     1
  1
\fArial|b0|i0;\H1.5000;Drafting Date
 73
     2
 44
1.0
1001
ACAD
1000
MTEXTBEGIN
1070
    73
1070
     2
1070
    44
1040
1.0
1070
    74
1070
     0
1000
MTEXTEND
  0
MTEXT
  5
1BF
330
18F
100
AcDbEntity
  8
Symbols(ISO)
 62
     7
100
AcDbMText
 10
165.0000000152229
 20
29.56250045287573
 30
0.0
 40
1.500000059604644
 41
24.92350646310317
 71
     1
 72
     1
  1
\fArial|b0|i0;\H1.5000;Engineer
 73
     2
 44
1.0
1001
ACAD
1000
MTEXTBEGIN
1070
    73
1070
     2
1070
    44
1040
1.0
1070
    74
1070
     0
1000
MTEXTEND
  0
MTEXT
  5
1C0
330
18F
100
AcDbEntity
  8
Symbols(ISO)
 62
     7
100
AcDbMText
 10
151.0000000152229
 20
37.03734803783854
 30
0.0
 40
1.500000059604644
 41
25.52236033545522
 71
     1
 72
     1
  1
\fArial|b0|i0;\H1.5000;Modification No.
 73
     2
 44
1.0
1001
ACAD
1000
MTEXTBEGIN
1070
    73
1070
     2
1070
    44
1040
1.0
1070
    74
1070
     0
1000
MTEXTEND
  0
MTEXT
  5
1C1
330
18F
100
AcDbEntity
  8
Symbols(ISO)
 62
     7
100
AcDbMText
 10
133.0000000152229
 20
37.03734803783854
 30
0.0
 40
1.500000059604644
 41
16.72100606977835
 71
     1
 72
     1
  1
\fArial|b0|i0;\H1.5000;Modified by
 73
     2
 44
1.0
1001
ACAD
1000
MTEXTBEGIN
1070
    73
1070
     2
1070
    44
1040
1.0
1070
    74
1070
     0
1000
MTEXTEND
  0
MTEXT
  5
1C2
330
18F
100
AcDbEntity
  8
Symbols(ISO)
 62
     7
100
AcDbMText
 10
1.000000015222894
 20
22.06250045287569
 30
0.0
 40
1.500000059604644
 41
16.60601408513002
 71
     1
 72
     1
  1
\fArial|b0|i0;\H1.5000;Description
 73
     2
 44
1.0
1001
ACAD
1000
MTEXTBEGIN
1070
    73
1070
     2
1070
    44
1040
1.0
1070
    74
1070
     0
1000
MTEXTEND
  0
MTEXT
  5
1C3
330
18F
100
AcDbEntity
  8
Symbols(ISO)
 62
     7
100
AcDbMText
 10
178.0000000152229
 20
37.0625004528757
 30
0.0
 40
1.500000059604644
 41
25.87084330479687
 71
     1
 72
     1
  1
\fArial|b0|i0;\H1.5000;Issue
 73
     2
 44
1.0
1001
ACAD
1000
MTEXTBEGIN
1070
    73
1070
     2
1070
    44
1040
1.0
1070
    74
1070
     0
1000
MTEXTEND
  0
MTEXT
  5
1C4
330
18F
100
AcDbEntity
  8
Symbols(ISO)
 62
     7
100
AcDbMText
 10
178.0000000152229
 20
29.53620467174017
 30
0.0
 40
1.500000059604644
 41
24.61155400221106
 71
     1
 72
     1
  1
\fArial|b0|i0;\H1.5000;Checked by
 73
     2
 44
1.0
1001
ACAD
1000
MTEXTBEGIN
1070
    73
1070
     2
1070
    44
1040
1.0
1070
    74
1070
     0
1000
MTEXTEND
  0
MTEXT
  5
1C5
330
18F
100
AcDbEntity
  8
Symbols(ISO)
 62
     7
100
AcDbMText
 10
178.0000000152229
 20
22.03734803783857
 30
0.0
 40
1.500000059604644
 41
25.36712749478809
 71
     1
 72
     1
  1
\fArial|b0|i0;\H1.5000;Drafted by
 73
     2
 44
1.0
1001
ACAD
1000
MTEXTBEGIN
1070
    73
1070
     2
1070
    44
1040
1.0
1070
    74
1070
     0
1000
MTEXTEND
  0
MTEXT
  5
1C6
330
18F
100
AcDbEntity
  8
Symbols(ISO)
100
AcDbMText
 10
37.11982528643581
 20
32.67467419194659
 30
0.0
 40
5.0
 41
65.83755744248716
 71
     1
 72
     1
  1
\fArial|b0|i0;\H5.0000;Information drawing
  7
VBG-RF-ISO
 73
     1
 44
1.0
1001
ACAD
1000
MTEXTBEGIN
1070
    73
1070
     1
1070
    44
1040
1.0
1070
    74
1070
     0
1000
MTEXTEND
  0
ATTDEF
  5
1C7
102
{ACAD_XDICTIONARY
360
F7E
102
}
330
18F
100
AcDbEntity
  8
Symbols(ISO)
100
AcDbText
 10
1.350459795014958
 20
15.60250826893397
 30
0.0
 40
3.499999940395355
  1
EDH-2TB
  7
VBG-RF-ISO
100
AcDbAttributeDefinition
  3
Description1
  2
Description1_001
 70
     0
  0
ATTDEF
  5
1C8
102
{ACAD_XDICTIONARY
360
F80
102
}
330
18F
100
AcDbEntity
  8
Symbols(ISO)
100
AcDbText
 10
1.737226500570242
 20
9.132457835247063
 30
0.0
 40
3.499999940395355
  1

  7
VBG-RF-ISO
 11
1.737226500570243
 21
12.63245777564242
 31
0.0
100
AcDbAttributeDefinition
  3
Description2
  2
Description2
 70
     0
 74
     3
  0
ATTDEF
  5
1C9
102
{ACAD_XDICTIONARY
360
F82
102
}
330
18F
100
AcDbEntity
  8
Symbols(ISO)
100
AcDbText
 10
1.737226500570242
 20
2.648082708761822
 30
0.0
 40
3.499999940395355
  1

  7
VBG-RF-ISO
 11
1.737226500570243
 21
6.148082649157177
 31
0.0
100
AcDbAttributeDefinition
  3
Description3
  2
Description3
 70
     0
 74
     3
  0
ATTDEF
  5
1CA
102
{ACAD_XDICTIONARY
360
F84
102
}
330
18F
100
AcDbEntity
  8
Symbols(ISO)
100
AcDbText
 10
105.8567530872394
 20
23.36348045362287
 30
0.0
 40
3.499999940395355
  1
21-112200
  7
VBG-RF-ISO
100
AcDbAttributeDefinition
  3
PART NUMBER
  2
PART_NUMBER_001
 70
     0
  0
ATTDEF
  5
1CB
102
{ACAD_XDICTIONARY
360
F86
102
}
330
18F
100
AcDbEntity
  8
Symbols(ISO)
100
AcDbText
 10
113.706684871976
 20
7.035147841217357
 30
0.0
 40
5.0
  1
38-182600
  7
VBG-RF-ISO
100
AcDbAttributeDefinition
  3
PART NUMBER
  2
PART_NUMBER_001
 70
     0
  0
ATTDEF
  5
1CC
102
{ACAD_XDICTIONARY
360
F88
102
}
330
18F
100
AcDbEntity
  8
Symbols(ISO)
100
AcDbText
 10
118.9675989328844
 20
15.86496177419694
 30
0.0
 40
3.499999940395355
  1
1:4
  7
VBG-RF-ISO
100
AcDbAttributeDefinition
  3
CSToolsScale
  2
CSToolsScale_001
 70
     0
  0
ATTDEF
  5
1CD
102
{ACAD_XDICTIONARY
360
F8A
102
}
330
18F
100
AcDbEntity
  8
Symbols(ISO)
100
AcDbText
 10
177.8233288040433
 20
31.23791800634761
 30
0.0
 40
3.499999940395355
  1
a
  7
VBG-RF-ISO
100
AcDbAttributeDefinition
  3
Issue
  2
Issue_001
 70
     0
  0
ATTDEF
  5
1CE
102
{ACAD_XDICTIONARY
360
F8C
102
}
330
18F
100
AcDbEntity
  8
Symbols(ISO)
100
AcDbText
 10
105.8567530872394
 20
30.96495483219519
 30
0.0
 40
3.499999940395355
  1
2006-09-07
  7
VBG-RF-ISO
100
AcDbAttributeDefinition
  3
Modified Date
  2
Modified_Date_001
 70
     0
  0
ATTDEF
  5
1CF
102
{ACAD_XDICTIONARY
360
F8E
102
}
330
18F
100
AcDbEntity
  8
Symbols(ISO)
100
AcDbText
 10
132.7564802376511
 20
31.17823178635451
 30
0.0
 40
3.499999940395355
  1
CC
  7
VBG-RF-ISO
100
AcDbAttributeDefinition
  3
Modified By
  2
Modified_By_001
 70
     0
  0
ATTDEF
  5
1D0
102
{ACAD_XDICTIONARY
360
F90
102
}
330
18F
100
AcDbEntity
  8
Symbols(ISO)
100
AcDbText
 10
150.8018417648458
 20
31.22359331354927
 30
0.0
 40
3.499999940395355
  1
8779
  7
VBG-RF-ISO
100
AcDbAttributeDefinition
  3
Modification No.
  2
Modification_No._001
 70
     0
  0
ATTDEF
  5
1D1
102
{ACAD_XDICTIONARY
360
F92
102
}
330
18F
100
AcDbEntity
  8
Symbols(ISO)
100
AcDbText
 10
106.0000000152229
 20
15.86496177419694
 30
0.0
 40
3.499999940395355
  1
A3
  7
VBG-RF-ISO
100
AcDbAttributeDefinition
  3
Sheet Size
  2
Sheet_Size_001
 70
     0
  0
ATTDEF
  5
1D2
102
{ACAD_XDICTIONARY
360
F94
102
}
330
18F
100
AcDbEntity
  8
Symbols(ISO)
100
AcDbText
 10
150.8567530872395
 20
15.86496177419694
 30
0.0
 40
3.499999940395355
  1
2006-09-07
  7
VBG-RF-ISO
100
AcDbAttributeDefinition
  3
CREATION DATE
  2
CREATION_DATE_001
 70
     0
  0
ATTDEF
  5
1D3
102
{ACAD_XDICTIONARY
360
F96
102
}
330
18F
100
AcDbEntity
  8
Symbols(ISO)
100
AcDbText
 10
177.756480237651
 20
15.81960024700218
 30
0.0
 40
3.499999940395355
  1
CC
  7
VBG-RF-ISO
100
AcDbAttributeDefinition
  3
DESIGNER
  2
DESIGNER_001
 70
     0
  0
ATTDEF
  5
1D4
102
{ACAD_XDICTIONARY
360
F98
102
}
330
18F
100
AcDbEntity
  8
Symbols(ISO)
100
AcDbText
 10
105.4611187055367
 20
7.055611688420631
 30
0.0
 40
5.0
  1
P
  7
VBG-RF-ISO
100
AcDbAttributeDefinition
  3
Stage
  2
Stage_001
 70
     0
  0
ATTDEF
  5
1D5
102
{ACAD_XDICTIONARY
360
F9A
102
}
330
18F
100
AcDbEntity
  8
Symbols(ISO)
100
AcDbText
 10
164.7803547256483
 20
23.61954266158871
 30
0.0
 40
3.499999940395355
  1
SN
  7
VBG-RF-ISO
100
AcDbAttributeDefinition
  3
AUTHOR
  2
AUTHOR_001
 70
     0
  0
ENDBLK
  5
191
330
18F
100
AcDbEntity
  8
0
100
AcDbBlockEnd
  0
BLOCK
  5
240
330
23F
100
AcDbEntity
  8
0
100
AcDbBlockBegin
  2
*D12
 70
     1
 10
0.0
 20
0.0
 30
0.0
  3
*D12
  1

  0
LINE
  5
311
330
23F
100
AcDbEntity
  8
Dimensions(ISO)
  6
Continuous
 62
     7
370
    15
100
AcDbLine
 10
678.313598819
 20
343.6621361226489
 30
0.0
 11
758.6485326184038
 21
343.6621361226489
 31
0.0
  0
LINE
  5
312
330
23F
100
AcDbEntity
  8
Dimensions(ISO)
  6
Continuous
 62
     7
370
    15
100
AcDbLine
 10
678.313598819
 20
403.6621361226488
 30
0.0
 11
758.6485326184038
 21
403.6621361226488
 31
0.0
  0
LINE
  5
313
330
23F
100
AcDbEntity
  8
Dimensions(ISO)
  6
Continuous
 62
     7
370
    15
100
AcDbLine
 10
750.6485326184038
 20
359.6621361226489
 30
0.0
 11
750.6485326184038
 21
387.6621361226489
 31
0.0
  0
INSERT
  5
314
330
23F
100
AcDbEntity
  8
Dimensions(ISO)
  6
Continuous
 62
     7
370
    15
100
AcDbBlockReference
  2
Filled-1
 10
750.6485326184038
 20
343.6621361226489
 30
0.0
 41
16.0
 42
16.0
 43
16.0
 50
270.0
  0
INSERT
  5
315
330
23F
100
AcDbEntity
  8
Dimensions(ISO)
  6
Continuous
 62
     7
370
    15
100
AcDbBlockReference
  2
Filled-1
 10
750.6485326184038
 20
403.6621361226488
 30
0.0
 41
16.0
 42
16.0
 43
16.0
 50
90.0
  0
MTEXT
  5
316
330
23F
100
AcDbEntity
  8
Dimensions(ISO)
  6
Continuous
370
    18
100
AcDbMText
 10
734.7524889621962
 20
363.6205263000022
 30
0.0
 40
14.0
 41
0.0
 71
     1
 72
     1
  1
\A1;60
  7
VBG-RF-ISO
 11
0.0000000000000001
 21
1.0
 31
0.0
 73
     1
 44
1.0
1001
ACAD
1000
MTEXTBEGIN
1070
    73
1070
     1
1070
    44
1040
1.0
1070
    74
1070
     0
1000
MTEXTEND
  0
POINT
  5
317
330
23F
100
AcDbEntity
  8
Defpoints
  6
Continuous
 62
     0
100
AcDbPoint
 10
674.313598819
 20
343.6621361226489
 30
0.0
  0
POINT
  5
318
330
23F
100
AcDbEntity
  8
Defpoints
  6
Continuous
 62
     0
100
AcDbPoint
 10
674.313598819
 20
403.6621361226488
 30
0.0
  0
POINT
  5
319
330
23F
100
AcDbEntity
  8
Defpoints
  6
Continuous
 62
     0
100
AcDbPoint
 10
750.6485326184038
 20
403.6621361226488
 30
0.0
  0
ENDBLK
  5
241
330
23F
100
AcDbEntity
  8
0
100
AcDbBlockEnd
  0
BLOCK
  5
31C
330
31B
100
AcDbEntity
  8
0
100
AcDbBlockBegin
  2
*D13
 70
     1
 10
0.0
 20
0.0
 30
0.0
  3
*D13
  1

  0
LINE
  5
409
330
31B
100
AcDbEntity
  8
Dimensions(ISO)
  6
Continuous
 62
     7
370
    15
100
AcDbLine
 10
678.313598819
 20
343.6621361226489
 30
0.0
 11
758.6485326184038
 21
343.6621361226489
 31
0.0
  0
LINE
  5
40A
330
31B
100
AcDbEntity
  8
Dimensions(ISO)
  6
Continuous
 62
     7
370
    15
100
AcDbLine
 10
701.3135988190001
 20
318.6621361226489
 30
0.0
 11
758.6485326184038
 21
318.6621361226489
 31
0.0
  0
LINE
  5
40B
330
31B
100
AcDbEntity
  8
Dimensions(ISO)
  6
Continuous
 62
     7
370
    15
100
AcDbLine
 10
750.6485326184038
 20
359.6621361226489
 30
0.0
 11
750.6485326184038
 21
375.6621361226489
 31
0.0
  0
LINE
  5
40C
330
31B
100
AcDbEntity
  8
Dimensions(ISO)
  6
Continuous
 62
     7
370
    15
100
AcDbLine
 10
750.6485326184038
 20
302.6621361226489
 30
0.0
 11
750.6485326184038
 21
286.6621361226489
 31
0.0
  0
LINE
  5
40D
330
31B
100
AcDbEntity
  8
Dimensions(ISO)
  6
Continuous
 62
     7
370
    15
100
AcDbLine
 10
750.6485326184038
 20
343.6621361226489
 30
0.0
 11
750.6485326184038
 21
318.6621361226489
 31
0.0
  0
INSERT
  5
40E
330
31B
100
AcDbEntity
  8
Dimensions(ISO)
  6
Continuous
 62
     7
370
    15
100
AcDbBlockReference
  2
Filled-1
 10
750.6485326184038
 20
343.6621361226489
 30
0.0
 41
16.0
 42
16.0
 43
16.0
 50
270.0
  0
INSERT
  5
40F
330
31B
100
AcDbEntity
  8
Dimensions(ISO)
  6
Continuous
 62
     7
370
    15
100
AcDbBlockReference
  2
Filled-1
 10
750.6485326184038
 20
318.6621361226489
 30
0.0
 41
16.0
 42
16.0
 43
16.0
 50
90.0
  0
MTEXT
  5
410
330
31B
100
AcDbEntity
  8
Dimensions(ISO)
  6
Continuous
370
    18
100
AcDbMText
 10
734.7524889621962
 20
320.9629546765372
 30
0.0
 40
14.0
 41
0.0
 71
     1
 72
     1
  1
\A1;25
  7
VBG-RF-ISO
 11
0.0000000000000001
 21
1.0
 31
0.0
 73
     1
 44
1.0
1001
ACAD
1000
MTEXTBEGIN
1070
    73
1070
     1
1070
    44
1040
1.0
1070
    74
1070
     0
1000
MTEXTEND
  0
POINT
  5
411
330
31B
100
AcDbEntity
  8
Defpoints
  6
Continuous
 62
     0
100
AcDbPoint
 10
674.313598819
 20
343.6621361226489
 30
0.0
  0
POINT
  5
412
330
31B
100
AcDbEntity
  8
Defpoints
  6
Continuous
 62
     0
100
AcDbPoint
 10
697.3135988190001
 20
318.6621361226489
 30
0.0
  0
POINT
  5
413
330
31B
100
AcDbEntity
  8
Defpoints
  6
Continuous
 62
     0
100
AcDbPoint
 10
750.6485326184038
 20
318.6621361226489
 30
0.0
  0
ENDBLK
  5
31D
330
31B
100
AcDbEntity
  8
0
100
AcDbBlockEnd
  0
BLOCK
  5
416
330
415
100
AcDbEntity
  8
0
100
AcDbBlockBegin
  2
*D14
 70
     1
 10
0.0
 20
0.0
 30
0.0
  3
*D14
  1

  0
LINE
  5
4E2
330
415
100
AcDbEntity
  8
Dimensions(ISO)
  6
Continuous
 62
     7
370
    15
100
AcDbLine
 10
674.313598819
 20
339.6621361226489
 30
0.0
 11
674.313598819
 21
281.7213938163886
 31
0.0
  0
LINE
  5
4E3
330
415
100
AcDbEntity
  8
Dimensions(ISO)
  6
Continuous
 62
     7
370
    15
100
AcDbLine
 10
614.313598819
 20
339.6621361226489
 30
0.0
 11
614.313598819
 21
281.7213938163886
 31
0.0
  0
LINE
  5
4E4
330
415
100
AcDbEntity
  8
Dimensions(ISO)
  6
Continuous
 62
     7
370
    15
100
AcDbLine
 10
658.313598819
 20
289.7213938163886
 30
0.0
 11
630.313598819
 21
289.7213938163886
 31
0.0
  0
INSERT
  5
4E5
330
415
100
AcDbEntity
  8
Dimensions(ISO)
  6
Continuous
 62
     7
370
    15
100
AcDbBlockReference
  2
Filled-1
 10
674.313598819
 20
289.7213938163886
 30
0.0
 41
16.0
 42
16.0
 43
16.0
  0
INSERT
  5
4E6
330
415
100
AcDbEntity
  8
Dimensions(ISO)
  6
Continuous
 62
     7
370
    15
100
AcDbBlockReference
  2
Filled-1
 10
614.313598819
 20
289.7213938163886
 30
0.0
 41
16.0
 42
16.0
 43
16.0
 50
180.0
  0
MTEXT
  5
4E7
330
415
100
AcDbEntity
  8
Dimensions(ISO)
  6
Continuous
370
    18
100
AcDbMText
 10
634.2719889963533
 20
305.617437472596
 30
0.0
 40
14.0
 41
0.0
 71
     1
 72
     1
  1
\A1;60
  7
VBG-RF-ISO
 73
     1
 44
1.0
1001
ACAD
1000
MTEXTBEGIN
1070
    73
1070
     1
1070
    44
1040
1.0
1070
    74
1070
     0
1000
MTEXTEND
  0
POINT
  5
4E8
330
415
100
AcDbEntity
  8
Defpoints
  6
Continuous
 62
     0
100
AcDbPoint
 10
674.313598819
 20
343.6621361226489
 30
0.0
  0
POINT
  5
4E9
330
415
100
AcDbEntity
  8
Defpoints
  6
Continuous
 62
     0
100
AcDbPoint
 10
614.313598819
 20
343.6621361226489
 30
0.0
  0
POINT
  5
4EA
330
415
100
AcDbEntity
  8
Defpoints
  6
Continuous
 62
     0
100
AcDbPoint
 10
614.313598819
 20
289.7213938163886
 30
0.0
  0
ENDBLK
  5
417
330
415
100
AcDbEntity
  8
0
100
AcDbBlockEnd
  0
BLOCK
  5
4ED
330
4EC
100
AcDbEntity
  8
0
100
AcDbBlockBegin
  2
*D15
 70
     1
 10
0.0
 20
0.0
 30
0.0
  3
*D15
  1

  0
LINE
  5
5B9
330
4EC
100
AcDbEntity
  8
Dimensions(ISO)
  6
Continuous
 62
     7
370
    15
100
AcDbLine
 10
554.313598819
 20
339.6621361226489
 30
0.0
 11
554.313598819
 21
281.7213938163886
 31
0.0
  0
LINE
  5
5BA
330
4EC
100
AcDbEntity
  8
Dimensions(ISO)
  6
Continuous
 62
     7
370
    15
100
AcDbLine
 10
614.313598819
 20
339.6621361226489
 30
0.0
 11
614.313598819
 21
281.7213938163886
 31
0.0
  0
LINE
  5
5BB
330
4EC
100
AcDbEntity
  8
Dimensions(ISO)
  6
Continuous
 62
     7
370
    15
100
AcDbLine
 10
570.313598819
 20
289.7213938163886
 30
0.0
 11
598.313598819
 21
289.7213938163886
 31
0.0
  0
INSERT
  5
5BC
330
4EC
100
AcDbEntity
  8
Dimensions(ISO)
  6
Continuous
 62
     7
370
    15
100
AcDbBlockReference
  2
Filled-1
 10
554.313598819
 20
289.7213938163886
 30
0.0
 41
16.0
 42
16.0
 43
16.0
 50
180.0
  0
INSERT
  5
5BD
330
4EC
100
AcDbEntity
  8
Dimensions(ISO)
  6
Continuous
 62
     7
370
    15
100
AcDbBlockReference
  2
Filled-1
 10
614.313598819
 20
289.7213938163886
 30
0.0
 41
16.0
 42
16.0
 43
16.0
  0
MTEXT
  5
5BE
330
4EC
100
AcDbEntity
  8
Dimensions(ISO)
  6
Continuous
370
    18
100
AcDbMText
 10
574.2719889963532
 20
305.617437472596
 30
0.0
 40
14.0
 41
0.0
 71
     1
 72
     1
  1
\A1;60
  7
VBG-RF-ISO
 73
     1
 44
1.0
1001
ACAD
1000
MTEXTBEGIN
1070
    73
1070
     1
1070
    44
1040
1.0
1070
    74
1070
     0
1000
MTEXTEND
  0
POINT
  5
5BF
330
4EC
100
AcDbEntity
  8
Defpoints
  6
Continuous
 62
     0
100
AcDbPoint
 10
554.313598819
 20
343.6621361226489
 30
0.0
  0
POINT
  5
5C0
330
4EC
100
AcDbEntity
  8
Defpoints
  6
Continuous
 62
     0
100
AcDbPoint
 10
614.313598819
 20
343.6621361226489
 30
0.0
  0
POINT
  5
5C1
330
4EC
100
AcDbEntity
  8
Defpoints
  6
Continuous
 62
     0
100
AcDbPoint
 10
614.313598819
 20
289.7213938163886
 30
0.0
  0
ENDBLK
  5
4EE
330
4EC
100
AcDbEntity
  8
0
100
AcDbBlockEnd
  0
BLOCK
  5
5C4
330
5C3
100
AcDbEntity
  8
0
100
AcDbBlockBegin
  2
*D16
 70
     1
 10
0.0
 20
0.0
 30
0.0
  3
*D16
  1

  0
LINE
  5
690
330
5C3
100
AcDbEntity
  8
Dimensions(ISO)
  6
Continuous
 62
     7
370
    15
100
AcDbLine
 10
554.313598819
 20
339.6621361226489
 30
0.0
 11
554.313598819
 21
281.7213938163886
 31
0.0
  0
LINE
  5
691
330
5C3
100
AcDbEntity
  8
Dimensions(ISO)
  6
Continuous
 62
     7
370
    15
100
AcDbLine
 10
494.313598819
 20
339.6621361226489
 30
0.0
 11
494.313598819
 21
281.7213938163886
 31
0.0
  0
LINE
  5
692
330
5C3
100
AcDbEntity
  8
Dimensions(ISO)
  6
Continuous
 62
     7
370
    15
100
AcDbLine
 10
538.313598819
 20
289.7213938163886
 30
0.0
 11
510.313598819
 21
289.7213938163886
 31
0.0
  0
INSERT
  5
693
330
5C3
100
AcDbEntity
  8
Dimensions(ISO)
  6
Continuous
 62
     7
370
    15
100
AcDbBlockReference
  2
Filled-1
 10
554.313598819
 20
289.7213938163886
 30
0.0
 41
16.0
 42
16.0
 43
16.0
  0
INSERT
  5
694
330
5C3
100
AcDbEntity
  8
Dimensions(ISO)
  6
Continuous
 62
     7
370
    15
100
AcDbBlockReference
  2
Filled-1
 10
494.313598819
 20
289.7213938163886
 30
0.0
 41
16.0
 42
16.0
 43
16.0
 50
180.0
  0
MTEXT
  5
695
330
5C3
100
AcDbEntity
  8
Dimensions(ISO)
  6
Continuous
370
    18
100
AcDbMText
 10
514.2719889963533
 20
305.617437472596
 30
0.0
 40
14.0
 41
0.0
 71
     1
 72
     1
  1
\A1;60
  7
VBG-RF-ISO
 73
     1
 44
1.0
1001
ACAD
1000
MTEXTBEGIN
1070
    73
1070
     1
1070
    44
1040
1.0
1070
    74
1070
     0
1000
MTEXTEND
  0
POINT
  5
696
330
5C3
100
AcDbEntity
  8
Defpoints
  6
Continuous
 62
     0
100
AcDbPoint
 10
554.313598819
 20
343.6621361226489
 30
0.0
  0
POINT
  5
697
330
5C3
100
AcDbEntity
  8
Defpoints
  6
Continuous
 62
     0
100
AcDbPoint
 10
494.313598819
 20
343.6621361226489
 30
0.0
  0
POINT
  5
698
330
5C3
100
AcDbEntity
  8
Defpoints
  6
Continuous
 62
     0
100
AcDbPoint
 10
494.313598819
 20
289.7213938163886
 30
0.0
  0
ENDBLK
  5
5C5
330
5C3
100
AcDbEntity
  8
0
100
AcDbBlockEnd
  0
BLOCK
  5
69B
330
69A
100
AcDbEntity
  8
0
100
AcDbBlockBegin
  2
*D17
 70
     1
 10
0.0
 20
0.0
 30
0.0
  3
*D17
  1

  0
LINE
  5
781
330
69A
100
AcDbEntity
  8
Dimensions(ISO)
  6
Continuous
 62
     7
370
    15
100
AcDbLine
 10
494.313598819
 20
339.6621361226489
 30
0.0
 11
494.313598819
 21
281.7213938163886
 31
0.0
  0
LINE
  5
782
330
69A
100
AcDbEntity
  8
Dimensions(ISO)
  6
Continuous
 62
     7
370
    15
100
AcDbLine
 10
465.313598819
 20
324.6621361226488
 30
0.0
 11
465.313598819
 21
281.7213938163886
 31
0.0
  0
LINE
  5
783
330
69A
100
AcDbEntity
  8
Dimensions(ISO)
  6
Continuous
 62
     7
370
    15
100
AcDbLine
 10
510.313598819
 20
289.7213938163886
 30
0.0
 11
526.313598819
 21
289.7213938163886
 31
0.0
  0
LINE
  5
784
330
69A
100
AcDbEntity
  8
Dimensions(ISO)
  6
Continuous
 62
     7
370
    15
100
AcDbLine
 10
449.3135988190001
 20
289.7213938163886
 30
0.0
 11
433.3135988190001
 21
289.7213938163886
 31
0.0
  0
LINE
  5
785
330
69A
100
AcDbEntity
  8
Dimensions(ISO)
  6
Continuous
 62
     7
370
    15
100
AcDbLine
 10
494.313598819
 20
289.7213938163886
 30
0.0
 11
465.313598819
 21
289.7213938163886
 31
0.0
  0
INSERT
  5
786
330
69A
100
AcDbEntity
  8
Dimensions(ISO)
  6
Continuous
 62
     7
370
    15
100
AcDbBlockReference
  2
Filled-1
 10
494.313598819
 20
289.7213938163886
 30
0.0
 41
16.0
 42
16.0
 43
16.0
 50
180.0
  0
INSERT
  5
787
330
69A
100
AcDbEntity
  8
Dimensions(ISO)
  6
Continuous
 62
     7
370
    15
100
AcDbBlockReference
  2
Filled-1
 10
465.313598819
 20
289.7213938163886
 30
0.0
 41
16.0
 42
16.0
 43
16.0
  0
MTEXT
  5
788
330
69A
100
AcDbEntity
  8
Dimensions(ISO)
  6
Continuous
370
    18
100
AcDbMText
 10
469.6526165543344
 20
305.617437472596
 30
0.0
 40
14.0
 41
0.0
 71
     1
 72
     1
  1
\A1;29
  7
VBG-RF-ISO
 73
     1
 44
1.0
1001
ACAD
1000
MTEXTBEGIN
1070
    73
1070
     1
1070
    44
1040
1.0
1070
    74
1070
     0
1000
MTEXTEND
  0
POINT
  5
789
330
69A
100
AcDbEntity
  8
Defpoints
  6
Continuous
 62
     0
100
AcDbPoint
 10
494.313598819
 20
343.6621361226489
 30
0.0
  0
POINT
  5
78A
330
69A
100
AcDbEntity
  8
Defpoints
  6
Continuous
 62
     0
100
AcDbPoint
 10
465.313598819
 20
328.6621361226488
 30
0.0
  0
POINT
  5
78B
330
69A
100
AcDbEntity
  8
Defpoints
  6
Continuous
 62
     0
100
AcDbPoint
 10
465.313598819
 20
289.7213938163886
 30
0.0
  0
ENDBLK
  5
69C
330
69A
100
AcDbEntity
  8
0
100
AcDbBlockEnd
  0
BLOCK
  5
795
330
794
100
AcDbEntity
  8
0
100
AcDbBlockBegin
  2
*D18
 70
     1
 10
0.0
 20
0.0
 30
0.0
  3
*D18
  1

  0
LINE
  5
861
330
794
100
AcDbEntity
  8
Dimensions(ISO)
  6
Continuous
 62
     7
370
    15
100
AcDbLine
 10
1130.280367579348
 20
962.6621361226488
 30
0.0
 11
1130.280367579348
 21
1004.248620349005
 31
0.0
  0
LINE
  5
862
330
794
100
AcDbEntity
  8
Dimensions(ISO)
  6
Continuous
 62
     7
370
    15
100
AcDbLine
 10
1075.280367579277
 20
972.662136122649
 30
0.0
 11
1075.280367579277
 21
1004.248620349005
 31
0.0
  0
LINE
  5
863
330
794
100
AcDbEntity
  8
Dimensions(ISO)
  6
Continuous
 62
     7
370
    15
100
AcDbLine
 10
1114.280367579348
 20
996.2486203490056
 30
0.0
 11
1091.280367579277
 21
996.2486203490056
 31
0.0
  0
INSERT
  5
864
330
794
100
AcDbEntity
  8
Dimensions(ISO)
  6
Continuous
 62
     7
370
    15
100
AcDbBlockReference
  2
Filled-1
 10
1130.280367579348
 20
996.2486203490056
 30
0.0
 41
16.0
 42
16.0
 43
16.0
  0
INSERT
  5
865
330
794
100
AcDbEntity
  8
Dimensions(ISO)
  6
Continuous
 62
     7
370
    15
100
AcDbBlockReference
  2
Filled-1
 10
1075.280367579277
 20
996.2486203490056
 30
0.0
 41
16.0
 42
16.0
 43
16.0
 50
180.0
  0
MTEXT
  5
866
330
794
100
AcDbEntity
  8
Dimensions(ISO)
  6
Continuous
370
    18
100
AcDbMText
 10
1092.70055857522
 20
1012.087365233043
 30
0.0
 40
14.0
 41
0.0
 71
     1
 72
     1
  1
\A1;55
  7
VBG-RF-ISO
 73
     1
 44
1.0
1001
ACAD
1000
MTEXTBEGIN
1070
    73
1070
     1
1070
    44
1040
1.0
1070
    74
1070
     0
1000
MTEXTEND
  0
POINT
  5
867
330
794
100
AcDbEntity
  8
Defpoints
  6
Continuous
 62
     0
100
AcDbPoint
 10
1130.280367579348
 20
958.6621361226487
 30
0.0
  0
POINT
  5
868
330
794
100
AcDbEntity
  8
Defpoints
  6
Continuous
 62
     0
100
AcDbPoint
 10
1075.280367579277
 20
968.6621361226487
 30
0.0
  0
POINT
  5
869
330
794
100
AcDbEntity
  8
Defpoints
  6
Continuous
 62
     0
100
AcDbPoint
 10
1075.280367579277
 20
996.2486203490056
 30
0.0
  0
ENDBLK
  5
796
330
794
100
AcDbEntity
  8
0
100
AcDbBlockEnd
  0
BLOCK
  5
86C
330
86B
100
AcDbEntity
  8
0
100
AcDbBlockBegin
  2
*D19
 70
     1
 10
0.0
 20
0.0
 30
0.0
  3
*D19
  1

  0
LINE
  5
93D
330
86B
100
AcDbEntity
  8
Dimensions(ISO)
  6
Continuous
 62
     7
370
    15
100
AcDbLine
 10
678.3135988189997
 20
883.6621361226489
 30
0.0
 11
758.6485326184039
 21
883.6621361226489
 31
0.0
  0
LINE
  5
93E
330
86B
100
AcDbEntity
  8
Dimensions(ISO)
  6
Continuous
 62
     7
370
    15
100
AcDbLine
 10
678.3135988189997
 20
943.6621361226487
 30
0.0
 11
758.6485326184039
 21
943.6621361226487
 31
0.0
  0
LINE
  5
93F
330
86B
100
AcDbEntity
  8
Dimensions(ISO)
  6
Continuous
 62
     7
370
    15
100
AcDbLine
 10
750.6485326184039
 20
899.6621361226489
 30
0.0
 11
750.6485326184039
 21
927.6621361226487
 31
0.0
  0
INSERT
  5
940
330
86B
100
AcDbEntity
  8
Dimensions(ISO)
  6
Continuous
 62
     7
370
    15
100
AcDbBlockReference
  2
Filled-1
 10
750.6485326184039
 20
883.6621361226489
 30
0.0
 41
16.0
 42
16.0
 43
16.0
 50
270.0
  0
INSERT
  5
941
330
86B
100
AcDbEntity
  8
Dimensions(ISO)
  6
Continuous
 62
     7
370
    15
100
AcDbBlockReference
  2
Filled-1
 10
750.6485326184039
 20
943.6621361226487
 30
0.0
 41
16.0
 42
16.0
 43
16.0
 50
90.0
  0
MTEXT
  5
942
330
86B
100
AcDbEntity
  8
Dimensions(ISO)
  6
Continuous
370
    18
100
AcDbMText
 10
734.7524889621962
 20
903.6205263000024
 30
0.0
 40
14.0
 41
0.0
 71
     1
 72
     1
  1
\A1;60
  7
VBG-RF-ISO
 11
0.0000000000000001
 21
1.0
 31
0.0
 73
     1
 44
1.0
1001
ACAD
1000
MTEXTBEGIN
1070
    73
1070
     1
1070
    44
1040
1.0
1070
    74
1070
     0
1000
MTEXTEND
  0
POINT
  5
943
330
86B
100
AcDbEntity
  8
Defpoints
  6
Continuous
 62
     0
100
AcDbPoint
 10
674.3135988189997
 20
883.6621361226489
 30
0.0
  0
POINT
  5
944
330
86B
100
AcDbEntity
  8
Defpoints
  6
Continuous
 62
     0
100
AcDbPoint
 10
674.3135988189997
 20
943.6621361226487
 30
0.0
  0
POINT
  5
945
330
86B
100
AcDbEntity
  8
Defpoints
  6
Continuous
 62
     0
100
AcDbPoint
 10
750.6485326184039
 20
943.6621361226487
 30
0.0
  0
ENDBLK
  5
86D
330
86B
100
AcDbEntity
  8
0
100
AcDbBlockEnd
  0
BLOCK
  5
948
330
947
100
AcDbEntity
  8
0
100
AcDbBlockBegin
  2
*D20
 70
     1
 10
0.0
 20
0.0
 30
0.0
  3
*D20
  1

  0
LINE
  5
A35
330
947
100
AcDbEntity
  8
Dimensions(ISO)
  6
Continuous
 62
     7
370
    15
100
AcDbLine
 10
678.3135988189997
 20
943.6621361226487
 30
0.0
 11
758.6485326184038
 21
943.6621361226487
 31
0.0
  0
LINE
  5
A36
330
947
100
AcDbEntity
  8
Dimensions(ISO)
  6
Continuous
 62
     7
370
    15
100
AcDbLine
 10
721.3135988189999
 20
968.6621361226487
 30
0.0
 11
758.6485326184038
 21
968.6621361226487
 31
0.0
  0
LINE
  5
A37
330
947
100
AcDbEntity
  8
Dimensions(ISO)
  6
Continuous
 62
     7
370
    15
100
AcDbLine
 10
750.6485326184038
 20
927.6621361226487
 30
0.0
 11
750.6485326184038
 21
911.6621361226489
 31
0.0
  0
LINE
  5
A38
330
947
100
AcDbEntity
  8
Dimensions(ISO)
  6
Continuous
 62
     7
370
    15
100
AcDbLine
 10
750.6485326184038
 20
984.6621361226487
 30
0.0
 11
750.6485326184038
 21
1000.662136122649
 31
0.0
  0
LINE
  5
A39
330
947
100
AcDbEntity
  8
Dimensions(ISO)
  6
Continuous
 62
     7
370
    15
100
AcDbLine
 10
750.6485326184038
 20
943.6621361226487
 30
0.0
 11
750.6485326184038
 21
968.6621361226487
 31
0.0
  0
INSERT
  5
A3A
330
947
100
AcDbEntity
  8
Dimensions(ISO)
  6
Continuous
 62
     7
370
    15
100
AcDbBlockReference
  2
Filled-1
 10
750.6485326184038
 20
943.6621361226487
 30
0.0
 41
16.0
 42
16.0
 43
16.0
 50
90.0
  0
INSERT
  5
A3B
330
947
100
AcDbEntity
  8
Dimensions(ISO)
  6
Continuous
 62
     7
370
    15
100
AcDbBlockReference
  2
Filled-1
 10
750.6485326184038
 20
968.6621361226487
 30
0.0
 41
16.0
 42
16.0
 43
16.0
 50
270.0
  0
MTEXT
  5
A3C
330
947
100
AcDbEntity
  8
Dimensions(ISO)
  6
Continuous
370
    18
100
AcDbMText
 10
734.7524889621962
 20
945.9629546765373
 30
0.0
 40
14.0
 41
0.0
 71
     1
 72
     1
  1
\A1;25
  7
VBG-RF-ISO
 11
0.0000000000000001
 21
1.0
 31
0.0
 73
     1
 44
1.0
1001
ACAD
1000
MTEXTBEGIN
1070
    73
1070
     1
1070
    44
1040
1.0
1070
    74
1070
     0
1000
MTEXTEND
  0
POINT
  5
A3D
330
947
100
AcDbEntity
  8
Defpoints
  6
Continuous
 62
     0
100
AcDbPoint
 10
674.3135988189997
 20
943.6621361226487
 30
0.0
  0
POINT
  5
A3E
330
947
100
AcDbEntity
  8
Defpoints
  6
Continuous
 62
     0
100
AcDbPoint
 10
717.3135988189999
 20
968.6621361226487
 30
0.0
  0
POINT
  5
A3F
330
947
100
AcDbEntity
  8
Defpoints
  6
Continuous
 62
     0
100
AcDbPoint
 10
750.6485326184038
 20
968.6621361226487
 30
0.0
  0
ENDBLK
  5
949
330
947
100
AcDbEntity
  8
0
100
AcDbBlockEnd
  0
BLOCK
  5
A42
330
A41
100
AcDbEntity
  8
0
100
AcDbBlockBegin
  2
*D21
 70
     1
 10
0.0
 20
0.0
 30
0.0
  3
*D21
  1

  0
LINE
  5
B1F
330
A41
100
AcDbEntity
  8
Dimensions(ISO)
  6
Continuous
 62
     7
370
    15
100
AcDbLine
 10
471.313598819
 20
968.6621361226487
 30
0.0
 11
419.3135988190003
 21
968.6621361226487
 31
0.0
  0
LINE
  5
B20
330
A41
100
AcDbEntity
  8
Dimensions(ISO)
  6
Continuous
 62
     7
370
    15
100
AcDbLine
 10
471.3135988190002
 20
318.6621361226489
 30
0.0
 11
419.313598819
 21
318.6621361226489
 31
0.0
  0
LINE
  5
B21
330
A41
100
AcDbEntity
  8
Dimensions(ISO)
  6
Continuous
 62
     7
370
    15
100
AcDbLine
 10
427.3135988190003
 20
952.6621361226487
 30
0.0
 11
427.313598819
 21
334.6621361226489
 31
0.0
  0
INSERT
  5
B22
330
A41
100
AcDbEntity
  8
Dimensions(ISO)
  6
Continuous
 62
     7
370
    15
100
AcDbBlockReference
  2
Filled-1
 10
427.3135988190003
 20
968.6621361226487
 30
0.0
 41
16.0
 42
16.0
 43
16.0
 50
90.0
  0
INSERT
  5
B23
330
A41
100
AcDbEntity
  8
Dimensions(ISO)
  6
Continuous
 62
     7
370
    15
100
AcDbBlockReference
  2
Filled-1
 10
427.313598819
 20
318.6621361226489
 30
0.0
 41
16.0
 42
16.0
 43
16.0
 50
270.0
  0
MTEXT
  5
B24
330
A41
100
AcDbEntity
  8
Dimensions(ISO)
  6
Continuous
370
    18
100
AcDbMText
 10
407.3588921341434
 20
621.7787800517076
 30
0.0
 40
14.0
 41
0.0
 71
     1
 72
     1
  1
\A1;(650)
  7
VBG-RF-ISO
 11
0.0000000000000001
 21
1.0
 31
0.0
 73
     1
 44
1.0
1001
ACAD
1000
MTEXTBEGIN
1070
    73
1070
     1
1070
    44
1040
1.0
1070
    74
1070
     0
1000
MTEXTEND
  0
POINT
  5
B25
330
A41
100
AcDbEntity
  8
Defpoints
  6
Continuous
 62
     0
100
AcDbPoint
 10
475.313598819
 20
968.6621361226487
 30
0.0
  0
POINT
  5
B26
330
A41
100
AcDbEntity
  8
Defpoints
  6
Continuous
 62
     0
100
AcDbPoint
 10
475.3135988190002
 20
318.6621361226489
 30
0.0
  0
POINT
  5
B27
330
A41
100
AcDbEntity
  8
Defpoints
  6
Continuous
 62
     0
100
AcDbPoint
 10
427.313598819
 20
318.6621361226489
 30
0.0
  0
ENDBLK
  5
A43
330
A41
100
AcDbEntity
  8
0
100
AcDbBlockEnd
  0
BLOCK
  5
B2A
330
B29
100
AcDbEntity
  8
0
100
AcDbBlockBegin
  2
*D22
 70
     1
 10
0.0
 20
0.0
 30
0.0
  3
*D22
  1

  0
LINE
  5
C01
330
B29
100
AcDbEntity
  8
Dimensions(ISO)
  6
Continuous
 62
     7
370
    15
100
AcDbLine
 10
465.3135988189999
 20
962.6621361226488
 30
0.0
 11
465.3135988189999
 21
1027.101691467746
 31
0.0
  0
LINE
  5
C02
330
B29
100
AcDbEntity
  8
Dimensions(ISO)
  6
Continuous
 62
     7
370
    15
100
AcDbLine
 10
717.3135988189999
 20
972.662136122649
 30
0.0
 11
717.3135988189999
 21
1027.101691467746
 31
0.0
  0
LINE
  5
C03
330
B29
100
AcDbEntity
  8
Dimensions(ISO)
  6
Continuous
 62
     7
370
    15
100
AcDbLine
 10
481.3135988189999
 20
1019.101691467746
 30
0.0
 11
701.3135988190001
 21
1019.101691467746
 31
0.0
  0
INSERT
  5
C04
330
B29
100
AcDbEntity
  8
Dimensions(ISO)
  6
Continuous
 62
     7
370
    15
100
AcDbBlockReference
  2
Filled-1
 10
465.3135988189999
 20
1019.101691467746
 30
0.0
 41
16.0
 42
16.0
 43
16.0
 50
180.0
  0
INSERT
  5
C05
330
B29
100
AcDbEntity
  8
Dimensions(ISO)
  6
Continuous
 62
     7
370
    15
100
AcDbBlockReference
  2
Filled-1
 10
717.3135988189999
 20
1019.101691467746
 30
0.0
 41
16.0
 42
16.0
 43
16.0
  0
MTEXT
  5
C06
330
B29
100
AcDbEntity
  8
Dimensions(ISO)
  6
Continuous
370
    18
100
AcDbMText
 10
569.4302427480586
 20
1039.056398152603
 30
0.0
 40
14.0
 41
0.0
 71
     1
 72
     1
  1
\A1;(252)
  7
VBG-RF-ISO
 73
     1
 44
1.0
1001
ACAD
1000
MTEXTBEGIN
1070
    73
1070
     1
1070
    44
1040
1.0
1070
    74
1070
     0
1000
MTEXTEND
  0
POINT
  5
C07
330
B29
100
AcDbEntity
  8
Defpoints
  6
Continuous
 62
     0
100
AcDbPoint
 10
465.3135988189999
 20
958.6621361226487
 30
0.0
  0
POINT
  5
C08
330
B29
100
AcDbEntity
  8
Defpoints
  6
Continuous
 62
     0
100
AcDbPoint
 10
717.3135988189999
 20
968.6621361226487
 30
0.0
  0
POINT
  5
C09
330
B29
100
AcDbEntity
  8
Defpoints
  6
Continuous
 62
     0
100
AcDbPoint
 10
717.3135988189999
 20
1019.101691467746
 30
0.0
  0
ENDBLK
  5
B2B
330
B29
100
AcDbEntity
  8
0
100
AcDbBlockEnd
  0
BLOCK
  5
C0C
330
C0B
100
AcDbEntity
  8
0
100
AcDbBlockBegin
  2
*D23
 70
     1
 10
0.0
 20
0.0
 30
0.0
  3
*D23
  1

  0
LINE
  5
CF2
330
C0B
100
AcDbEntity
  8
Dimensions(ISO)
  6
Continuous
 62
     7
370
    15
100
AcDbLine
 10
717.3135988189999
 20
972.662136122649
 30
0.0
 11
717.3135988189999
 21
1004.248620349005
 31
0.0
  0
LINE
  5
CF3
330
C0B
100
AcDbEntity
  8
Dimensions(ISO)
  6
Continuous
 62
     7
370
    15
100
AcDbLine
 10
707.3135988189999
 20
972.662136122649
 30
0.0
 11
707.3135988189999
 21
1004.248620349005
 31
0.0
  0
LINE
  5
CF4
330
C0B
100
AcDbEntity
  8
Dimensions(ISO)
  6
Continuous
 62
     7
370
    15
100
AcDbLine
 10
733.3135988189999
 20
996.2486203490056
 30
0.0
 11
749.3135988189999
 21
996.2486203490056
 31
0.0
  0
LINE
  5
CF5
330
C0B
100
AcDbEntity
  8
Dimensions(ISO)
  6
Continuous
 62
     7
370
    15
100
AcDbLine
 10
691.3135988189999
 20
996.2486203490056
 30
0.0
 11
653.4246492964897
 21
996.2486203490056
 31
0.0
  0
LINE
  5
CF6
330
C0B
100
AcDbEntity
  8
Dimensions(ISO)
  6
Continuous
 62
     7
370
    15
100
AcDbLine
 10
717.3135988189999
 20
996.2486203490056
 30
0.0
 11
707.3135988189999
 21
996.2486203490056
 31
0.0
  0
INSERT
  5
CF7
330
C0B
100
AcDbEntity
  8
Dimensions(ISO)
  6
Continuous
 62
     7
370
    15
100
AcDbBlockReference
  2
Filled-1
 10
717.3135988189999
 20
996.2486203490056
 30
0.0
 41
16.0
 42
16.0
 43
16.0
 50
180.0
  0
INSERT
  5
CF8
330
C0B
100
AcDbEntity
  8
Dimensions(ISO)
  6
Continuous
 62
     7
370
    15
100
AcDbBlockReference
  2
Filled-1
 10
707.3135988189999
 20
996.2486203490056
 30
0.0
 41
16.0
 42
16.0
 43
16.0
  0
MTEXT
  5
CF9
330
C0B
100
AcDbEntity
  8
Dimensions(ISO)
  6
Continuous
370
    18
100
AcDbMText
 10
655.0246492964897
 20
1012.144664005212
 30
0.0
 40
14.0
 41
0.0
 71
     1
 72
     1
  1
\A1;10
  7
VBG-RF-ISO
 73
     1
 44
1.0
1001
ACAD
1000
MTEXTBEGIN
1070
    73
1070
     1
1070
    44
1040
1.0
1070
    74
1070
     0
1000
MTEXTEND
  0
POINT
  5
CFA
330
C0B
100
AcDbEntity
  8
Defpoints
  6
Continuous
 62
     0
100
AcDbPoint
 10
717.3135988189999
 20
968.6621361226487
 30
0.0
  0
POINT
  5
CFB
330
C0B
100
AcDbEntity
  8
Defpoints
  6
Continuous
 62
     0
100
AcDbPoint
 10
707.3135988189999
 20
968.6621361226487
 30
0.0
  0
POINT
  5
CFC
330
C0B
100
AcDbEntity
  8
Defpoints
  6
Continuous
 62
     0
100
AcDbPoint
 10
707.3135988189999
 20
996.2486203490056
 30
0.0
  0
ENDBLK
  5
C0D
330
C0B
100
AcDbEntity
  8
0
100
AcDbBlockEnd
  0
BLOCK
  5
CFF
330
CFE
100
AcDbEntity
  8
0
100
AcDbBlockBegin
  2
*D24
 70
     1
 10
0.0
 20
0.0
 30
0.0
  3
*D24
  1

  0
LINE
  5
DD0
330
CFE
100
AcDbEntity
  8
Dimensions(ISO)
  6
Continuous
 62
     7
370
    15
100
AcDbLine
 10
694.8135988189999
 20
883.6621361226489
 30
0.0
 11
760.6485326184038
 21
883.6621361226489
 31
0.0
  0
LINE
  5
DD1
330
CFE
100
AcDbEntity
  8
Dimensions(ISO)
  6
Continuous
 62
     7
370
    15
100
AcDbLine
 10
694.813598819
 20
403.6621361226488
 30
0.0
 11
760.6485326184038
 21
403.6621361226488
 31
0.0
  0
LINE
  5
DD2
330
CFE
100
AcDbEntity
  8
Dimensions(ISO)
  6
Continuous
 62
     7
370
    15
100
AcDbLine
 10
752.6485326184038
 20
867.6621361226489
 30
0.0
 11
752.6485326184038
 21
419.6621361226489
 31
0.0
  0
INSERT
  5
DD3
330
CFE
100
AcDbEntity
  8
Dimensions(ISO)
  6
Continuous
 62
     7
370
    15
100
AcDbBlockReference
  2
Filled-1
 10
752.6485326184038
 20
883.6621361226489
 30
0.0
 41
16.0
 42
16.0
 43
16.0
 50
90.0
  0
INSERT
  5
DD4
330
CFE
100
AcDbEntity
  8
Dimensions(ISO)
  6
Continuous
 62
     7
370
    15
100
AcDbBlockReference
  2
Filled-1
 10
752.6485326184038
 20
403.6621361226488
 30
0.0
 41
16.0
 42
16.0
 43
16.0
 50
270.0
  0
MTEXT
  5
DD5
330
CFE
100
AcDbEntity
  8
Dimensions(ISO)
  6
Continuous
370
    18
100
AcDbMText
 10
736.7524889621962
 20
627.9383980598931
 30
0.0
 40
14.0
 41
0.0
 71
     1
 72
     1
  1
\A1;480
  7
VBG-RF-ISO
 11
0.0000000000000001
 21
1.0
 31
0.0
 73
     1
 44
1.0
1001
ACAD
1000
MTEXTBEGIN
1070
    73
1070
     1
1070
    44
1040
1.0
1070
    74
1070
     0
1000
MTEXTEND
  0
POINT
  5
DD6
330
CFE
100
AcDbEntity
  8
Defpoints
  6
Continuous
 62
     0
100
AcDbPoint
 10
690.8135988189999
 20
883.6621361226489
 30
0.0
  0
POINT
  5
DD7
330
CFE
100
AcDbEntity
  8
Defpoints
  6
Continuous
 62
     0
100
AcDbPoint
 10
690.813598819
 20
403.6621361226488
 30
0.0
  0
POINT
  5
DD8
330
CFE
100
AcDbEntity
  8
Defpoints
  6
Continuous
 62
     0
100
AcDbPoint
 10
752.6485326184038
 20
403.6621361226488
 30
0.0
  0
ENDBLK
  5
D00
330
CFE
100
AcDbEntity
  8
0
100
AcDbBlockEnd
  0
BLOCK
  5
DDB
330
DDA
100
AcDbEntity
  8
0
100
AcDbBlockBegin
  2
*D25
 70
     1
 10
0.0
 20
0.0
 30
0.0
  3
*D25
  1

  0
LINE
  5
EA7
330
DDA
100
AcDbEntity
  8
Dimensions(ISO)
  6
Continuous
 62
     7
370
    15
100
AcDbLine
 10
717.3135988189999
 20
324.6621361226488
 30
0.0
 11
717.3135988189999
 21
281.7213938163886
 31
0.0
  0
LINE
  5
EA8
330
DDA
100
AcDbEntity
  8
Dimensions(ISO)
  6
Continuous
 62
     7
370
    15
100
AcDbLine
 10
674.313598819
 20
323.1621361226489
 30
0.0
 11
674.313598819
 21
281.7213938163886
 31
0.0
  0
LINE
  5
EA9
330
DDA
100
AcDbEntity
  8
Dimensions(ISO)
  6
Continuous
 62
     7
370
    15
100
AcDbLine
 10
701.3135988190001
 20
289.7213938163886
 30
0.0
 11
690.3135988189999
 21
289.7213938163886
 31
0.0
  0
INSERT
  5
EAA
330
DDA
100
AcDbEntity
  8
Dimensions(ISO)
  6
Continuous
 62
     7
370
    15
100
AcDbBlockReference
  2
Filled-1
 10
717.3135988189999
 20
289.7213938163886
 30
0.0
 41
16.0
 42
16.0
 43
16.0
  0
INSERT
  5
EAB
330
DDA
100
AcDbEntity
  8
Dimensions(ISO)
  6
Continuous
 62
     7
370
    15
100
AcDbBlockReference
  2
Filled-1
 10
674.313598819
 20
289.7213938163886
 30
0.0
 41
16.0
 42
16.0
 43
16.0
 50
180.0
  0
MTEXT
  5
EAC
330
DDA
100
AcDbEntity
  8
Dimensions(ISO)
  6
Continuous
370
    18
100
AcDbMText
 10
685.5045947262303
 20
305.6269872679575
 30
0.0
 40
14.0
 41
0.0
 71
     1
 72
     1
  1
\A1;43
  7
VBG-RF-ISO
 73
     1
 44
1.0
1001
ACAD
1000
MTEXTBEGIN
1070
    73
1070
     1
1070
    44
1040
1.0
1070
    74
1070
     0
1000
MTEXTEND
  0
POINT
  5
EAD
330
DDA
100
AcDbEntity
  8
Defpoints
  6
Continuous
 62
     0
100
AcDbPoint
 10
717.3135988189999
 20
328.6621361226488
 30
0.0
  0
POINT
  5
EAE
330
DDA
100
AcDbEntity
  8
Defpoints
  6
Continuous
 62
     0
100
AcDbPoint
 10
674.313598819
 20
327.1621361226489
 30
0.0
  0
POINT
  5
EAF
330
DDA
100
AcDbEntity
  8
Defpoints
  6
Continuous
 62
     0
100
AcDbPoint
 10
674.313598819
 20
289.7213938163886
 30
0.0
  0
ENDBLK
  5
DDC
330
DDA
100
AcDbEntity
  8
0
100
AcDbBlockEnd
  0
BLOCK
  5
EB2
330
EB1
100
AcDbEntity
  8
0
100
AcDbBlockBegin
  2
*D26
 70
     1
 10
0.0
 20
0.0
 30
0.0
  3
*D26
  1

  0
LINE
  5
F59
330
EB1
100
AcDbEntity
  8
Dimensions(ISO)
  6
Continuous
 62
     7
370
    15
100
AcDbLine
 10
612.0371702763394
 20
437.7319801068398
 30
0.0
 11
518.5790015421628
 21
437.7319801068398
 31
0.0
  0
LINE
  5
F5A
330
EB1
100
AcDbEntity
  8
Dimensions(ISO)
  6
Continuous
 62
     7
370
    15
100
AcDbLine
 10
518.5790015421628
 20
437.7319801068398
 30
0.0
 11
508.5266940591706
 21
423.6180355935784
 31
0.0
  0
MTEXT
  5
F5B
102
{ACAD_XDICTIONARY
360
10A1
102
}
330
EB1
100
AcDbEntity
  8
Dimensions(ISO)
  6
Continuous
370
    18
100
AcDbMText
 10
541.120389921633
 20
454.4111069826923
 30
0.0
 40
14.0
 41
0.0
 71
     1
 72
     1
  1
\A1;16x \U+220517
  7
VBG-RF-ISO
 73
     1
 44
1.0
1001
ACAD
1000
MTEXTBEGIN
1070
    73
1070
     1
1070
    44
1040
1.0
1070
    74
1070
     0
1000
MTEXTEND
  0
INSERT
  5
F5C
330
EB1
100
AcDbEntity
  8
Dimensions(ISO)
  6
Continuous
 62
     7
370
    15
100
AcDbBlockReference
  2
Filled-1
 10
499.2446726778348
 20
410.585611449298
 30
0.0
 41
16.0
 42
16.0
 43
16.0
 50
234.5405710460343
  0
LINE
  5
F5D
330
EB1
100
AcDbEntity
  8
Dimensions(ISO)
  6
Continuous
 62
     7
370
    15
100
AcDbLine
 10
493.9535988190001
 20
403.6621361226488
 30
0.0
 11
494.6735988190003
 21
403.6621361226489
 31
0.0
  0
LINE
  5
F5E
330
EB1
100
AcDbEntity
  8
Dimensions(ISO)
  6
Continuous
 62
     7
370
    15
100
AcDbLine
 10
494.3135988190001
 20
403.3021361226488
 30
0.0
 11
494.3135988190001
 21
404.022136122649
 31
0.0
  0
POINT
  5
F5F
330
EB1
100
AcDbEntity
  8
Defpoints
  6
Continuous
 62
     0
100
AcDbPoint
 10
499.2446726778348
 20
410.585611449298
 30
0.0
  0
POINT
  5
F60
330
EB1
100
AcDbEntity
  8
Defpoints
  6
Continuous
 62
     0
100
AcDbPoint
 10
489.3825249601656
 20
396.738660796
 30
0.0
  0
ENDBLK
  5
EB3
330
EB1
100
AcDbEntity
  8
0
100
AcDbBlockEnd
  0
BLOCK
  5
1049
330
1048
100
AcDbEntity
  8
0
100
AcDbBlockBegin
  2
GENAXEH
 70
     0
 10
0.0
 20
0.0
 30
0.0
  3
GENAXEH
  1

  0
LINE
  5
104A
330
1048
100
AcDbEntity
  8
0
100
AcDbLine
 10
-1.0
 20
0.0
 30
0.0
 11
1.0
 21
0.0
 31
0.0
  0
ENDBLK
  5
104B
330
1048
100
AcDbEntity
  8
0
100
AcDbBlockEnd
  0
ENDSEC
  0
SECTION
  2
ENTITIES
  0
INSERT
  5
18E
330
75
100
AcDbEntity
  8
0
100
AcDbBlockReference
  2
Borders Default Border
 10
0.0
 20
0.0
 30
0.0
 41
4.0
 42
4.0
 43
4.0
  0
INSERT
  5
1D6
330
75
100
AcDbEntity
  8
0
100
AcDbBlockReference
 66
     1
  2
Title Blocks Info VBG
 10
879.9999999391085
 20
39.74999818849722
 30
0.0
 41
4.0
 42
4.0
 43
4.0
  0
ATTRIB
  5
1D8
102
{ACAD_XDICTIONARY
360
F9C
102
}
330
1D6
100
AcDbEntity
  8
Symbols(ISO)
100
AcDbText
 10
885.4018391191681
 20
102.1600312642331
 30
0.0
 40
13.99999976158142
  1
EDH-2TB
  7
VBG-RF-ISO
100
AcDbAttribute
  2
Description1_001
 70
     0
  0
ATTRIB
  5
1D9
102
{ACAD_XDICTIONARY
360
F9E
102
}
330
1D6
100
AcDbEntity
  8
Symbols(ISO)
100
AcDbText
 10
886.9489059413892
 20
76.27982952948549
 30
0.0
 40
13.99999976158142
  1

  7
VBG-RF-ISO
 11
886.9489059413892
 21
90.27982929106691
 31
0.0
100
AcDbAttribute
  2
Description2
 70
     0
 74
     3
  0
ATTRIB
  5
1DA
102
{ACAD_XDICTIONARY
360
FA0
102
}
330
1D6
100
AcDbEntity
  8
Symbols(ISO)
100
AcDbText
 10
886.9489059413892
 20
50.3423290235445
 30
0.0
 40
13.99999976158142
  1

  7
VBG-RF-ISO
 11
886.9489059413892
 21
64.34232878512593
 31
0.0
100
AcDbAttribute
  2
Description3
 70
     0
 74
     3
  0
ATTRIB
  5
1DB
102
{ACAD_XDICTIONARY
360
FA2
102
}
330
1D6
100
AcDbEntity
  8
Symbols(ISO)
100
AcDbText
 10
1303.427012288066
 20
133.2039200029887
 30
0.0
 40
13.99999976158142
  1
21-112200
  7
VBG-RF-ISO
100
AcDbAttribute
  2
PART_NUMBER_001
 70
     0
  0
ATTRIB
  5
1DC
102
{ACAD_XDICTIONARY
360
FA4
102
}
330
1D6
100
AcDbEntity
  8
Symbols(ISO)
100
AcDbText
 10
1334.826739427012
 20
67.89058955336667
 30
0.0
 40
20.0
  1
38-182600
  7
VBG-RF-ISO
100
AcDbAttribute
  2
PART_NUMBER_001
 70
     0
  0
ATTRIB
  5
1DD
102
{ACAD_XDICTIONARY
360
FA6
102
}
330
1D6
100
AcDbEntity
  8
Symbols(ISO)
100
AcDbText
 10
1355.870395670646
 20
103.209845285285
 30
0.0
 40
13.99999976158142
  1
1:4
  7
VBG-RF-ISO
100
AcDbAttribute
  2
CSToolsScale_001
 70
     0
  0
ATTRIB
  5
1DE
102
{ACAD_XDICTIONARY
360
FA8
102
}
330
1D6
100
AcDbEntity
  8
Symbols(ISO)
100
AcDbText
 10
1591.293315155282
 20
164.7016702138876
 30
0.0
 40
13.99999976158142
  1
a
  7
VBG-RF-ISO
100
AcDbAttribute
  2
Issue_001
 70
     0
  0
ATTRIB
  5
1DF
102
{ACAD_XDICTIONARY
360
FAA
102
}
330
1D6
100
AcDbEntity
  8
Symbols(ISO)
100
AcDbText
 10
1303.427012288066
 20
163.609817517278
 30
0.0
 40
13.99999976158142
  1
2006-09-07
  7
VBG-RF-ISO
100
AcDbAttribute
  2
Modified_Date_001
 70
     0
  0
ATTRIB
  5
1E0
102
{ACAD_XDICTIONARY
360
FAC
102
}
330
1D6
100
AcDbEntity
  8
Symbols(ISO)
100
AcDbText
 10
1411.025920889712
 20
164.4629253339153
 30
0.0
 40
13.99999976158142
  1
CC
  7
VBG-RF-ISO
100
AcDbAttribute
  2
Modified_By_001
 70
     0
  0
ATTRIB
  5
1E1
102
{ACAD_XDICTIONARY
360
FAE
102
}
330
1D6
100
AcDbEntity
  8
Symbols(ISO)
100
AcDbText
 10
1483.207366998492
 20
164.6443714426943
 30
0.0
 40
13.99999976158142
  1
8779
  7
VBG-RF-ISO
100
AcDbAttribute
  2
Modification_No._001
 70
     0
  0
ATTRIB
  5
1E2
102
{ACAD_XDICTIONARY
360
FB0
102
}
330
1D6
100
AcDbEntity
  8
Symbols(ISO)
100
AcDbText
 10
1304.0
 20
103.209845285285
 30
0.0
 40
13.99999976158142
  1
A3
  7
VBG-RF-ISO
100
AcDbAttribute
  2
Sheet_Size_001
 70
     0
  0
ATTRIB
  5
1E3
102
{ACAD_XDICTIONARY
360
FB2
102
}
330
1D6
100
AcDbEntity
  8
Symbols(ISO)
100
AcDbText
 10
1483.427012288066
 20
103.209845285285
 30
0.0
 40
13.99999976158142
  1
2006-09-07
  7
VBG-RF-ISO
100
AcDbAttribute
  2
CREATION_DATE_001
 70
     0
  0
ATTRIB
  5
1E4
102
{ACAD_XDICTIONARY
360
FB4
102
}
330
1D6
100
AcDbEntity
  8
Symbols(ISO)
100
AcDbText
 10
1591.025920889712
 20
103.0283991765059
 30
0.0
 40
13.99999976158142
  1
CC
  7
VBG-RF-ISO
100
AcDbAttribute
  2
DESIGNER_001
 70
     0
  0
ATTRIB
  5
1E5
102
{ACAD_XDICTIONARY
360
FB6
102
}
330
1D6
100
AcDbEntity
  8
Symbols(ISO)
100
AcDbText
 10
1301.844474761255
 20
67.97244494217976
 30
0.0
 40
20.0
  1
P
  7
VBG-RF-ISO
100
AcDbAttribute
  2
Stage_001
 70
     0
  0
ATTRIB
  5
1E6
102
{ACAD_XDICTIONARY
360
FB8
102
}
330
1D6
100
AcDbEntity
  8
Symbols(ISO)
100
AcDbText
 10
1539.121418841701
 20
134.228168834852
 30
0.0
 40
13.99999976158142
  1
SN
  7
VBG-RF-ISO
100
AcDbAttribute
  2
AUTHOR_001
 70
     0
  0
SEQEND
  5
1D7
330
1D6
100
AcDbEntity
  8
0
  0
LINE
  5
1E7
330
75
100
AcDbEntity
  8
Visible Edges(ISO)
100
AcDbLine
 10
707.3135988189999
 20
968.6621361226487
 30
0.0
 11
697.3135988190001
 21
968.6621361226487
 31
0.0
  0
LINE
  5
1E8
330
75
100
AcDbEntity
  8
Visible Edges(ISO)
100
AcDbLine
 10
697.3135988190001
 20
318.662136122649
 30
0.0
 11
707.3135988189999
 21
318.662136122649
 31
0.0
  0
LINE
  5
1E9
330
75
100
AcDbEntity
  8
Visible Edges(ISO)
100
AcDbLine
 10
475.313598819
 20
968.6621361226487
 30
0.0
 11
697.3135988190001
 21
968.6621361226487
 31
0.0
  0
ARC
  5
1EA
330
75
100
AcDbEntity
  8
Visible Edges(ISO)
100
AcDbCircle
 10
475.313598819
 20
958.6621361226487
 30
0.0
 40
10.0
100
AcDbArc
 50
90.00000000000039
 51
180.0
  0
LINE
  5
1EB
330
75
100
AcDbEntity
  8
Visible Edges(ISO)
100
AcDbLine
 10
465.313598819
 20
328.6621361226488
 30
0.0
 11
465.3135988189999
 21
958.6621361226487
 31
0.0
  0
ARC
  5
1EC
330
75
100
AcDbEntity
  8
Visible Edges(ISO)
100
AcDbCircle
 10
475.313598819
 20
328.6621361226487
 30
0.0
 40
9.999999999999856
100
AcDbArc
 50
180.0
 51
270.0000000000004
  0
LINE
  5
1ED
330
75
100
AcDbEntity
  8
Visible Edges(ISO)
100
AcDbLine
 10
697.3135988190001
 20
318.6621361226489
 30
0.0
 11
475.3135988190002
 21
318.6621361226489
 31
0.0
  0
LINE
  5
1EE
330
75
100
AcDbEntity
  8
Visible Edges(ISO)
100
AcDbLine
 10
717.3135988189999
 20
968.6621361226487
 30
0.0
 11
717.3135988189999
 21
958.6621361226487
 31
0.0
  0
LINE
  5
1EF
330
75
100
AcDbEntity
  8
Visible Edges(ISO)
100
AcDbLine
 10
717.3135988189999
 20
328.6621361226488
 30
0.0
 11
717.3135988189999
 21
958.6621361226487
 31
0.0
  0
LINE
  5
1F0
330
75
100
AcDbEntity
  8
Visible Edges(ISO)
100
AcDbLine
 10
717.3135988189999
 20
328.6621361226488
 30
0.0
 11
717.3135988189999
 21
318.6621361226489
 31
0.0
  0
LINE
  5
1F1
330
75
100
AcDbEntity
  8
Visible Edges(ISO)
100
AcDbLine
 10
717.3135988189999
 20
318.6621361226489
 30
0.0
 11
707.3135988189999
 21
318.6621361226489
 31
0.0
  0
LINE
  5
1F2
330
75
100
AcDbEntity
  8
Visible Edges(ISO)
100
AcDbLine
 10
707.3135988189999
 20
318.6621361226488
 30
0.0
 11
707.3135988189999
 21
328.6621361226488
 31
0.0
  0
LINE
  5
1F3
330
75
100
AcDbEntity
  8
Visible Edges(ISO)
100
AcDbLine
 10
707.3135988189999
 20
958.6621361226487
 30
0.0
 11
707.3135988189999
 21
328.6621361226488
 31
0.0
  0
LINE
  5
1F4
330
75
100
AcDbEntity
  8
Visible Edges(ISO)
100
AcDbLine
 10
707.3135988189999
 20
958.6621361226487
 30
0.0
 11
707.3135988189999
 21
968.6621361226487
 31
0.0
  0
LINE
  5
1F5
330
75
100
AcDbEntity
  8
Visible Edges(ISO)
100
AcDbLine
 10
717.3135988189999
 20
968.6621361226487
 30
0.0
 11
707.3135988189999
 21
968.6621361226487
 31
0.0
  0
CIRCLE
  5
1F6
330
75
100
AcDbEntity
  8
Visible Edges(ISO)
100
AcDbCircle
 10
674.313598819
 20
343.6621361226489
 30
0.0
 40
8.5
  0
CIRCLE
  5
1F7
330
75
100
AcDbEntity
  8
Visible Edges(ISO)
100
AcDbCircle
 10
614.313598819
 20
343.6621361226489
 30
0.0
 40
8.5
  0
CIRCLE
  5
1F8
330
75
100
AcDbEntity
  8
Visible Edges(ISO)
100
AcDbCircle
 10
554.313598819
 20
343.6621361226489
 30
0.0
 40
8.5
  0
CIRCLE
  5
1F9
330
75
100
AcDbEntity
  8
Visible Edges(ISO)
100
AcDbCircle
 10
494.313598819
 20
343.6621361226489
 30
0.0
 40
8.5
  0
CIRCLE
  5
1FA
330
75
100
AcDbEntity
  8
Visible Edges(ISO)
100
AcDbCircle
 10
674.313598819
 20
403.6621361226488
 30
0.0
 40
8.5
  0
CIRCLE
  5
1FB
330
75
100
AcDbEntity
  8
Visible Edges(ISO)
100
AcDbCircle
 10
614.313598819
 20
403.6621361226488
 30
0.0
 40
8.5
  0
CIRCLE
  5
1FC
330
75
100
AcDbEntity
  8
Visible Edges(ISO)
100
AcDbCircle
 10
554.313598819
 20
403.6621361226488
 30
0.0
 40
8.5
  0
CIRCLE
  5
1FD
330
75
100
AcDbEntity
  8
Visible Edges(ISO)
100
AcDbCircle
 10
494.313598819
 20
403.6621361226488
 30
0.0
 40
8.5
  0
CIRCLE
  5
1FE
330
75
100
AcDbEntity
  8
Visible Edges(ISO)
100
AcDbCircle
 10
674.3135988189997
 20
883.6621361226489
 30
0.0
 40
8.5
  0
CIRCLE
  5
1FF
330
75
100
AcDbEntity
  8
Visible Edges(ISO)
100
AcDbCircle
 10
614.313598819
 20
883.6621361226489
 30
0.0
 40
8.5
  0
CIRCLE
  5
200
330
75
100
AcDbEntity
  8
Visible Edges(ISO)
100
AcDbCircle
 10
554.313598819
 20
883.6621361226489
 30
0.0
 40
8.5
  0
CIRCLE
  5
201
330
75
100
AcDbEntity
  8
Visible Edges(ISO)
100
AcDbCircle
 10
494.3135988189998
 20
883.6621361226489
 30
0.0
 40
8.5
  0
CIRCLE
  5
202
330
75
100
AcDbEntity
  8
Visible Edges(ISO)
100
AcDbCircle
 10
674.3135988189997
 20
943.6621361226487
 30
0.0
 40
8.5
  0
CIRCLE
  5
203
330
75
100
AcDbEntity
  8
Visible Edges(ISO)
100
AcDbCircle
 10
614.313598819
 20
943.6621361226487
 30
0.0
 40
8.5
  0
CIRCLE
  5
204
330
75
100
AcDbEntity
  8
Visible Edges(ISO)
100
AcDbCircle
 10
554.313598819
 20
943.6621361226487
 30
0.0
 40
8.5
  0
CIRCLE
  5
205
330
75
100
AcDbEntity
  8
Visible Edges(ISO)
100
AcDbCircle
 10
494.3135988189998
 20
943.6621361226487
 30
0.0
 40
8.5
  0
LINE
  5
206
330
75
100
AcDbEntity
  8
Visible Edges(ISO)
100
AcDbLine
 10
1095.280367579348
 20
968.6621361226487
 30
0.0
 11
1085.280367579345
 21
968.6621361226487
 31
0.0
  0
LINE
  5
207
330
75
100
AcDbEntity
  8
Visible Edges(ISO)
100
AcDbLine
 10
1085.280367579345
 20
318.662136122649
 30
0.0
 11
1095.280367579348
 21
318.662136122649
 31
0.0
  0
LINE
  5
208
330
75
100
AcDbEntity
  8
Visible Edges(ISO)
100
AcDbLine
 10
1085.280367579279
 20
968.6621361226487
 30
0.0
 11
1085.280367579276
 21
958.6621361226487
 31
0.0
  0
LINE
  5
209
330
75
100
AcDbEntity
  8
Visible Edges(ISO)
100
AcDbLine
 10
1085.280367579276
 20
328.6621361226488
 30
0.0
 11
1085.280367579276
 21
958.6621361226487
 31
0.0
  0
LINE
  5
20A
330
75
100
AcDbEntity
  8
Visible Edges(ISO)
100
AcDbLine
 10
1085.280367579276
 20
328.6621361226488
 30
0.0
 11
1085.280367579279
 21
318.6621361226489
 31
0.0
  0
LINE
  5
20B
330
75
100
AcDbEntity
  8
Visible Edges(ISO)
100
AcDbLine
 10
1075.280367579279
 20
318.6621361226488
 30
0.0
 11
1075.280367579276
 21
328.6621361226488
 31
0.0
  0
LINE
  5
20C
330
75
100
AcDbEntity
  8
Visible Edges(ISO)
100
AcDbLine
 10
1075.280367579276
 20
958.6621361226487
 30
0.0
 11
1075.280367579276
 21
328.6621361226488
 31
0.0
  0
LINE
  5
20D
330
75
100
AcDbEntity
  8
Visible Edges(ISO)
100
AcDbLine
 10
1075.280367579276
 20
958.6621361226487
 30
0.0
 11
1075.280367579279
 21
968.6621361226487
 31
0.0
  0
LINE
  5
20E
330
75
100
AcDbEntity
  8
Visible Edges(ISO)
100
AcDbLine
 10
1075.280367579279
 20
318.6621361226489
 30
0.0
 11
1085.280367579279
 21
318.6621361226489
 31
0.0
  0
LINE
  5
20F
330
75
100
AcDbEntity
  8
Visible Edges(ISO)
100
AcDbLine
 10
1075.280367579279
 20
968.6621361226487
 30
0.0
 11
1085.280367579279
 21
968.6621361226487
 31
0.0
  0
LINE
  5
210
330
75
100
AcDbEntity
  8
Visible Edges(ISO)
100
AcDbLine
 10
1120.280367579348
 20
318.6621361226489
 30
0.0
 11
1095.280367579348
 21
318.6621361226489
 31
0.0
  0
ARC
  5
211
330
75
100
AcDbEntity
  8
Visible Edges(ISO)
100
AcDbCircle
 10
1120.280367579348
 20
328.6621361226487
 30
0.0
 40
9.999999999999893
100
AcDbArc
 50
269.9999999999992
 51
0.0
  0
LINE
  5
212
330
75
100
AcDbEntity
  8
Visible Edges(ISO)
100
AcDbLine
 10
1130.280367579348
 20
958.6621361226487
 30
0.0
 11
1130.280367579348
 21
328.6621361226488
 31
0.0
  0
ARC
  5
213
330
75
100
AcDbEntity
  8
Visible Edges(ISO)
100
AcDbCircle
 10
1120.280367579348
 20
958.6621361226487
 30
0.0
 40
9.999999999999996
100
AcDbArc
 50
0.0
 51
90.0
  0
LINE
  5
214
330
75
100
AcDbEntity
  8
Visible Edges(ISO)
100
AcDbLine
 10
1095.280367579348
 20
968.6621361226487
 30
0.0
 11
1120.280367579348
 21
968.6621361226487
 31
0.0
  0
LINE
  5
215
330
75
100
AcDbEntity
  8
Hidden Edges(ISO)
 48
4.759338855743408
100
AcDbLine
 10
1075.280367579285
 20
352.1621361226489
 30
0.0
 11
1085.280367579285
 21
352.1621361226489
 31
0.0
  0
LINE
  5
216
330
75
100
AcDbEntity
  8
Hidden Edges(ISO)
 48
4.759338855743408
100
AcDbLine
 10
1075.280367579285
 20
335.1621361226488
 30
0.0
 11
1085.280367579285
 21
335.1621361226488
 31
0.0
  0
LINE
  5
217
330
75
100
AcDbEntity
  8
Hidden Edges(ISO)
 48
4.759338855743408
100
AcDbLine
 10
1075.280367579285
 20
412.1621361226488
 30
0.0
 11
1085.280367579285
 21
412.1621361226488
 31
0.0
  0
LINE
  5
218
330
75
100
AcDbEntity
  8
Hidden Edges(ISO)
 48
4.759338855743408
100
AcDbLine
 10
1075.280367579285
 20
395.1621361226488
 30
0.0
 11
1085.280367579285
 21
395.1621361226488
 31
0.0
  0
LINE
  5
219
330
75
100
AcDbEntity
  8
Hidden Edges(ISO)
 48
4.759338855743408
100
AcDbLine
 10
1075.280367579285
 20
892.1621361226488
 30
0.0
 11
1085.280367579285
 21
892.1621361226488
 31
0.0
  0
LINE
  5
21A
330
75
100
AcDbEntity
  8
Hidden Edges(ISO)
 48
4.759338855743408
100
AcDbLine
 10
1075.280367579285
 20
875.1621361226488
 30
0.0
 11
1085.280367579285
 21
875.1621361226488
 31
0.0
  0
LINE
  5
21B
330
75
100
AcDbEntity
  8
Hidden Edges(ISO)
 48
4.759338855743408
100
AcDbLine
 10
1075.280367579285
 20
952.1621361226488
 30
0.0
 11
1085.280367579285
 21
952.1621361226488
 31
0.0
  0
LINE
  5
21C
330
75
100
AcDbEntity
  8
Hidden Edges(ISO)
 48
4.759338855743408
100
AcDbLine
 10
1075.280367579285
 20
935.162136122649
 30
0.0
 11
1085.280367579285
 21
935.162136122649
 31
0.0
  0
LINE
  5
21D
330
75
100
AcDbEntity
  8
Center Mark(ISO)
  6
CHAIN
 48
9.167361259460447
100
AcDbLine
 10
494.3135988189998
 20
960.162136122649
 30
0.0
 11
494.3135988189998
 21
927.1621361226488
 31
0.0
  0
LINE
  5
21E
330
75
100
AcDbEntity
  8
Center Mark(ISO)
  6
CHAIN
 48
9.167361259460447
100
AcDbLine
 10
674.3135988189997
 20
960.162136122649
 30
0.0
 11
674.3135988189997
 21
927.1621361226488
 31
0.0
  0
LINE
  5
21F
330
75
100
AcDbEntity
  8
Centerline(ISO)
  6
CHAIN
 48
21.16850090026856
100
AcDbLine
 10
477.8135988189999
 20
943.6621361226487
 30
0.0
 11
690.8135988189999
 21
943.6621361226487
 31
0.0
  0
LINE
  5
220
330
75
100
AcDbEntity
  8
Center Mark(ISO)
  6
CHAIN
 48
9.167361259460447
100
AcDbLine
 10
494.3135988189999
 20
900.1621361226488
 30
0.0
 11
494.3135988189999
 21
867.1621361226488
 31
0.0
  0
LINE
  5
221
330
75
100
AcDbEntity
  8
Center Mark(ISO)
  6
CHAIN
 48
9.167361259460447
100
AcDbLine
 10
674.3135988189997
 20
900.1621361226488
 30
0.0
 11
674.3135988189997
 21
867.1621361226488
 31
0.0
  0
LINE
  5
222
330
75
100
AcDbEntity
  8
Centerline(ISO)
  6
CHAIN
 48
21.16850090026856
100
AcDbLine
 10
477.8135988189999
 20
883.6621361226489
 30
0.0
 11
690.8135988189999
 21
883.6621361226489
 31
0.0
  0
LINE
  5
223
330
75
100
AcDbEntity
  8
Center Mark(ISO)
  6
CHAIN
 48
9.167361259460447
100
AcDbLine
 10
494.3135988189999
 20
420.1621361226488
 30
0.0
 11
494.3135988189999
 21
387.1621361226488
 31
0.0
  0
LINE
  5
224
330
75
100
AcDbEntity
  8
Center Mark(ISO)
  6
CHAIN
 48
9.167361259460447
100
AcDbLine
 10
674.313598819
 20
420.1621361226488
 30
0.0
 11
674.313598819
 21
387.1621361226488
 31
0.0
  0
LINE
  5
225
330
75
100
AcDbEntity
  8
Centerline(ISO)
  6
CHAIN
 48
21.16850090026856
100
AcDbLine
 10
477.8135988189999
 20
403.6621361226488
 30
0.0
 11
690.813598819
 21
403.6621361226488
 31
0.0
  0
LINE
  5
226
330
75
100
AcDbEntity
  8
Center Mark(ISO)
  6
CHAIN
 48
9.167361259460447
100
AcDbLine
 10
674.313598819
 20
327.1621361226489
 30
0.0
 11
674.313598819
 21
360.1621361226488
 31
0.0
  0
LINE
  5
227
330
75
100
AcDbEntity
  8
Center Mark(ISO)
  6
CHAIN
 48
9.167361259460447
100
AcDbLine
 10
494.313598819
 20
327.1621361226489
 30
0.0
 11
494.313598819
 21
360.1621361226488
 31
0.0
  0
LINE
  5
228
330
75
100
AcDbEntity
  8
Centerline(ISO)
  6
CHAIN
 48
21.16850090026856
100
AcDbLine
 10
690.813598819
 20
343.6621361226489
 30
0.0
 11
477.813598819
 21
343.6621361226489
 31
0.0
  0
LINE
  5
229
330
75
100
AcDbEntity
  8
Center Mark(ISO)
  6
CHAIN
 48
9.167361259460447
100
AcDbLine
 10
570.8135988189998
 20
943.6621361226487
 30
0.0
 11
537.813598819
 21
943.6621361226487
 31
0.0
  0
LINE
  5
22A
330
75
100
AcDbEntity
  8
Center Mark(ISO)
  6
CHAIN
 48
9.167361259460447
100
AcDbLine
 10
554.313598819
 20
960.162136122649
 30
0.0
 11
554.313598819
 21
927.1621361226488
 31
0.0
  0
LINE
  5
22B
330
75
100
AcDbEntity
  8
Center Mark(ISO)
  6
CHAIN
 48
9.167361259460447
100
AcDbLine
 10
630.8135988189998
 20
943.6621361226487
 30
0.0
 11
597.813598819
 21
943.6621361226487
 31
0.0
  0
LINE
  5
22C
330
75
100
AcDbEntity
  8
Center Mark(ISO)
  6
CHAIN
 48
9.167361259460447
100
AcDbLine
 10
614.313598819
 20
960.162136122649
 30
0.0
 11
614.313598819
 21
927.1621361226488
 31
0.0
  0
LINE
  5
22D
330
75
100
AcDbEntity
  8
Center Mark(ISO)
  6
CHAIN
 48
9.167361259460447
100
AcDbLine
 10
630.813598819
 20
883.6621361226489
 30
0.0
 11
597.813598819
 21
883.6621361226489
 31
0.0
  0
LINE
  5
22E
330
75
100
AcDbEntity
  8
Center Mark(ISO)
  6
CHAIN
 48
9.167361259460447
100
AcDbLine
 10
614.313598819
 20
900.1621361226488
 30
0.0
 11
614.313598819
 21
867.1621361226488
 31
0.0
  0
LINE
  5
22F
330
75
100
AcDbEntity
  8
Center Mark(ISO)
  6
CHAIN
 48
9.167361259460447
100
AcDbLine
 10
570.8135988189998
 20
883.6621361226489
 30
0.0
 11
537.813598819
 21
883.6621361226489
 31
0.0
  0
LINE
  5
230
330
75
100
AcDbEntity
  8
Center Mark(ISO)
  6
CHAIN
 48
9.167361259460447
100
AcDbLine
 10
554.313598819
 20
900.1621361226488
 30
0.0
 11
554.313598819
 21
867.1621361226488
 31
0.0
  0
LINE
  5
231
330
75
100
AcDbEntity
  8
Center Mark(ISO)
  6
CHAIN
 48
9.167361259460447
100
AcDbLine
 10
570.813598819
 20
403.6621361226488
 30
0.0
 11
537.813598819
 21
403.6621361226488
 31
0.0
  0
LINE
  5
232
330
75
100
AcDbEntity
  8
Center Mark(ISO)
  6
CHAIN
 48
9.167361259460447
100
AcDbLine
 10
554.313598819
 20
420.1621361226488
 30
0.0
 11
554.313598819
 21
387.1621361226488
 31
0.0
  0
LINE
  5
233
330
75
100
AcDbEntity
  8
Center Mark(ISO)
  6
CHAIN
 48
9.167361259460447
100
AcDbLine
 10
630.813598819
 20
403.6621361226488
 30
0.0
 11
597.813598819
 21
403.6621361226488
 31
0.0
  0
LINE
  5
234
330
75
100
AcDbEntity
  8
Center Mark(ISO)
  6
CHAIN
 48
9.167361259460447
100
AcDbLine
 10
614.313598819
 20
420.1621361226488
 30
0.0
 11
614.313598819
 21
387.1621361226488
 31
0.0
  0
LINE
  5
235
330
75
100
AcDbEntity
  8
Center Mark(ISO)
  6
CHAIN
 48
9.167361259460447
100
AcDbLine
 10
630.813598819
 20
343.6621361226489
 30
0.0
 11
597.813598819
 21
343.6621361226489
 31
0.0
  0
LINE
  5
236
330
75
100
AcDbEntity
  8
Center Mark(ISO)
  6
CHAIN
 48
9.167361259460447
100
AcDbLine
 10
614.313598819
 20
360.1621361226488
 30
0.0
 11
614.313598819
 21
327.1621361226489
 31
0.0
  0
LINE
  5
237
330
75
100
AcDbEntity
  8
Center Mark(ISO)
  6
CHAIN
 48
9.167361259460447
100
AcDbLine
 10
570.813598819
 20
343.6621361226489
 30
0.0
 11
537.813598819
 21
343.6621361226489
 31
0.0
  0
LINE
  5
238
330
75
100
AcDbEntity
  8
Center Mark(ISO)
  6
CHAIN
 48
9.167361259460447
100
AcDbLine
 10
554.313598819
 20
360.1621361226488
 30
0.0
 11
554.313598819
 21
327.1621361226489
 31
0.0
  0
LINE
  5
239
330
75
100
AcDbEntity
  8
Centerline(ISO)
  6
CHAIN
 48
6.111540794372557
100
AcDbLine
 10
1069.280367579285
 20
943.6621361226487
 30
0.0
 11
1091.280367579285
 21
943.6621361226487
 31
0.0
  0
LINE
  5
23A
330
75
100
AcDbEntity
  8
Centerline(ISO)
  6
CHAIN
 48
6.111540794372557
100
AcDbLine
 10
1069.280367579285
 20
883.6621361226489
 30
0.0
 11
1091.280367579285
 21
883.6621361226489
 31
0.0
  0
LINE
  5
23B
330
75
100
AcDbEntity
  8
Centerline(ISO)
  6
CHAIN
 48
6.111540794372557
100
AcDbLine
 10
1069.280367579285
 20
403.6621361226488
 30
0.0
 11
1091.280367579285
 21
403.6621361226488
 31
0.0
  0
LINE
  5
23C
330
75
100
AcDbEntity
  8
Centerline(ISO)
  6
CHAIN
 48
6.111540794372557
100
AcDbLine
 10
1069.280367579285
 20
343.6621361226489
 30
0.0
 11
1091.280367579285
 21
343.6621361226489
 31
0.0
  0
DIMENSION
  5
23D
330
75
100
AcDbEntity
  8
Dimensions(ISO)
  6
Continuous
 62
     7
370
    18
100
AcDbDimension
  2
*D12
 10
750.6485326184038
 20
403.6621361226488
 30
0.0
 11
750.6485326184035
 21
373.6621361226489
 31
0.0
 70
   160
  1
<>
 71
     5
 42
60.0
  3
VBG-RF-ISO
100
AcDbAlignedDimension
 13
674.313598819
 23
343.6621361226489
 33
0.0
 14
674.313598819
 24
403.6621361226488
 34
0.0
 50
90.0
100
AcDbRotatedDimension
1001
ACAD
1000
DSTYLE
1002
{
1070
   289
1070
     2
1070
    74
1070
     0
1070
   271
1070
     2
1070
   272
1070
     2
1070
    48
1040
0.0
1070
    47
1040
0.0
1002
}
  0
DIMENSION
  5
31A
330
75
100
AcDbEntity
  8
Dimensions(ISO)
  6
Continuous
 62
     7
370
    18
100
AcDbDimension
  2
*D13
 10
750.6485326184038
 20
318.6621361226489
 30
0.0
 11
750.6485326184035
 21
331.162136122649
 31
0.0
 70
   160
  1
<>
 71
     5
 42
25.0
  3
VBG-RF-ISO
100
AcDbAlignedDimension
 13
674.313598819
 23
343.6621361226489
 33
0.0
 14
697.3135988190001
 24
318.6621361226489
 34
0.0
 50
90.0
100
AcDbRotatedDimension
1001
ACAD
1000
DSTYLE
1002
{
1070
   289
1070
     2
1070
    74
1070
     0
1070
   271
1070
     2
1070
   272
1070
     2
1070
    48
1040
0.0
1070
    47
1040
0.0
1002
}
  0
DIMENSION
  5
414
330
75
100
AcDbEntity
  8
Dimensions(ISO)
  6
Continuous
 62
     7
370
    18
100
AcDbDimension
  2
*D14
 10
614.313598819
 20
289.7213938163886
 30
0.0
 11
644.313598819
 21
289.7213938163886
 31
0.0
 70
   160
  1
<>
 71
     5
 42
59.99999999999989
  3
VBG-RF-ISO
100
AcDbAlignedDimension
 13
674.313598819
 23
343.6621361226489
 33
0.0
 14
614.313598819
 24
343.6621361226489
 34
0.0
 50
180.0
100
AcDbRotatedDimension
1001
ACAD
1000
DSTYLE
1002
{
1070
   289
1070
     2
1070
    74
1070
     0
1070
   271
1070
     2
1070
   272
1070
     2
1070
    48
1040
0.0
1070
    47
1040
0.0
1002
}
  0
DIMENSION
  5
4EB
330
75
100
AcDbEntity
  8
Dimensions(ISO)
  6
Continuous
 62
     7
370
    18
100
AcDbDimension
  2
*D15
 10
614.313598819
 20
289.7213938163886
 30
0.0
 11
584.313598819
 21
289.7213938163886
 31
0.0
 70
   160
  1
<>
 71
     5
 42
60.0000000000001
  3
VBG-RF-ISO
100
AcDbAlignedDimension
 13
554.313598819
 23
343.6621361226489
 33
0.0
 14
614.313598819
 24
343.6621361226489
 34
0.0
 50
180.0
100
AcDbRotatedDimension
1001
ACAD
1000
DSTYLE
1002
{
1070
   289
1070
     2
1070
    74
1070
     0
1070
   271
1070
     2
1070
   272
1070
     2
1070
    48
1040
0.0
1070
    47
1040
0.0
1002
}
  0
DIMENSION
  5
5C2
330
75
100
AcDbEntity
  8
Dimensions(ISO)
  6
Continuous
 62
     7
370
    18
100
AcDbDimension
  2
*D16
 10
494.313598819
 20
289.7213938163886
 30
0.0
 11
524.313598819
 21
289.7213938163886
 31
0.0
 70
   160
  1
<>
 71
     5
 42
59.99999999999989
  3
VBG-RF-ISO
100
AcDbAlignedDimension
 13
554.313598819
 23
343.6621361226489
 33
0.0
 14
494.313598819
 24
343.6621361226489
 34
0.0
 50
180.0
100
AcDbRotatedDimension
1001
ACAD
1000
DSTYLE
1002
{
1070
   289
1070
     2
1070
    74
1070
     0
1070
   271
1070
     2
1070
   272
1070
     2
1070
    48
1040
0.0
1070
    47
1040
0.0
1002
}
  0
DIMENSION
  5
699
330
75
100
AcDbEntity
  8
Dimensions(ISO)
  6
Continuous
 62
     7
370
    18
100
AcDbDimension
  2
*D17
 10
465.313598819
 20
289.7213938163886
 30
0.0
 11
479.8135988190002
 21
289.7213938163886
 31
0.0
 70
   160
  1
<>
 71
     5
 42
29.0
  3
VBG-RF-ISO
100
AcDbAlignedDimension
 13
494.313598819
 23
343.6621361226489
 33
0.0
 14
465.313598819
 24
328.6621361226488
 34
0.0
 50
0.0000000000000129
100
AcDbRotatedDimension
1001
ACAD
1000
DSTYLE
1002
{
1070
   289
1070
     2
1070
    74
1070
     0
1070
   271
1070
     2
1070
   272
1070
     2
1070
    48
1040
0.0
1070
    47
1040
0.0
1002
}
  0
LINE
  5
78C
330
75
100
AcDbEntity
  8
Center Mark(ISO)
  6
CHAIN
 48
9.167361259460447
100
AcDbLine
 10
690.8135988189999
 20
883.6621361226489
 30
0.0
 11
657.8135988189998
 21
883.6621361226489
 31
0.0
  0
LINE
  5
78D
330
75
100
AcDbEntity
  8
Center Mark(ISO)
  6
CHAIN
 48
9.167361259460447
100
AcDbLine
 10
690.813598819
 20
343.6621361226489
 30
0.0
 11
657.813598819
 21
343.6621361226489
 31
0.0
  0
LINE
  5
78E
330
75
100
AcDbEntity
  8
Center Mark(ISO)
  6
CHAIN
 48
9.167361259460447
100
AcDbLine
 10
690.8135988189999
 20
943.6621361226487
 30
0.0
 11
657.8135988189998
 21
943.6621361226487
 31
0.0
  0
LINE
  5
78F
330
75
100
AcDbEntity
  8
Centerline(ISO)
  6
CHAIN
 48
21.16850090026856
100
AcDbLine
 10
674.3135988189997
 20
960.162136122649
 30
0.0
 11
674.313598819
 21
327.1621361226489
 31
0.0
  0
LINE
  5
790
330
75
100
AcDbEntity
  8
Center Mark(ISO)
  6
CHAIN
 48
9.167361259460447
100
AcDbLine
 10
477.813598819
 20
343.6621361226489
 30
0.0
 11
510.813598819
 21
343.6621361226489
 31
0.0
  0
LINE
  5
791
330
75
100
AcDbEntity
  8
Center Mark(ISO)
  6
CHAIN
 48
9.167361259460447
100
AcDbLine
 10
477.8135988189999
 20
943.6621361226487
 30
0.0
 11
510.8135988189999
 21
943.6621361226487
 31
0.0
  0
LINE
  5
792
330
75
100
AcDbEntity
  8
Centerline(ISO)
  6
CHAIN
 48
21.16850090026856
100
AcDbLine
 10
494.313598819
 20
327.1621361226489
 30
0.0
 11
494.3135988189998
 21
960.162136122649
 31
0.0
  0
DIMENSION
  5
793
330
75
100
AcDbEntity
  8
Dimensions(ISO)
  6
Continuous
 62
     7
370
    18
100
AcDbDimension
  2
*D18
 10
1075.280367579277
 20
996.2486203490056
 30
0.0
 11
1102.780367579313
 21
996.2486203490056
 31
0.0
 70
   160
  1
<>
 71
     5
 42
55.00000000007026
  3
VBG-RF-ISO
100
AcDbAlignedDimension
 13
1130.280367579348
 23
958.6621361226487
 33
0.0
 14
1075.280367579277
 24
968.6621361226487
 34
0.0
 50
180.0
100
AcDbRotatedDimension
1001
ACAD
1000
DSTYLE
1002
{
1070
   289
1070
     2
1070
    74
1070
     0
1070
   271
1070
     2
1070
   272
1070
     2
1070
    48
1040
0.0
1070
    47
1040
0.0
1002
}
  0
DIMENSION
  5
86A
330
75
100
AcDbEntity
  8
Dimensions(ISO)
  6
Continuous
 62
     7
370
    18
100
AcDbDimension
  2
*D19
 10
750.6485326184039
 20
943.6621361226487
 30
0.0
 11
750.6485326184035
 21
913.6621361226488
 31
0.0
 70
   160
  1
<>
 71
     5
 42
60.0
  3
VBG-RF-ISO
100
AcDbAlignedDimension
 13
674.3135988189997
 23
883.6621361226489
 33
0.0
 14
674.3135988189997
 24
943.6621361226487
 34
0.0
 50
90.0
100
AcDbRotatedDimension
1001
ACAD
1000
DSTYLE
1002
{
1070
   289
1070
     2
1070
    74
1070
     0
1070
   271
1070
     2
1070
   272
1070
     2
1070
    48
1040
0.0
1070
    47
1040
0.0
1002
}
  0
DIMENSION
  5
946
330
75
100
AcDbEntity
  8
Dimensions(ISO)
  6
Continuous
 62
     7
370
    18
100
AcDbDimension
  2
*D20
 10
750.6485326184038
 20
968.6621361226487
 30
0.0
 11
750.6485326184035
 21
956.1621361226492
 31
0.0
 70
   160
  1
<>
 71
     5
 42
25.0
  3
VBG-RF-ISO
100
AcDbAlignedDimension
 13
674.3135988189997
 23
943.6621361226487
 33
0.0
 14
717.3135988189999
 24
968.6621361226487
 34
0.0
 50
90.0
100
AcDbRotatedDimension
1001
ACAD
1000
DSTYLE
1002
{
1070
   289
1070
     2
1070
    74
1070
     0
1070
   271
1070
     2
1070
   272
1070
     2
1070
    48
1040
0.0
1070
    47
1040
0.0
1002
}
  0
DIMENSION
  5
A40
330
75
100
AcDbEntity
  8
Dimensions(ISO)
  6
Continuous
 62
     7
370
    18
100
AcDbDimension
  2
*D21
 10
427.313598819
 20
318.6621361226489
 30
0.0
 11
427.313598819
 21
643.6621361226488
 31
0.0
 70
   160
  1
(<>)
 71
     5
 42
650.0
  3
VBG-RF-ISO
100
AcDbAlignedDimension
 13
475.313598819
 23
968.6621361226487
 33
0.0
 14
475.3135988190002
 24
318.6621361226489
 34
0.0
 50
90.0
100
AcDbRotatedDimension
1001
ACAD
1000
DSTYLE
1002
{
1070
   289
1070
     2
1070
    74
1070
     0
1070
   271
1070
     2
1070
   147
1040
0.4
1070
    72
1070
     0
1070
    71
1070
     0
1070
   272
1070
     2
1070
    48
1040
0.0
1070
    47
1040
0.0
1002
}
  0
DIMENSION
  5
B28
330
75
100
AcDbEntity
  8
Dimensions(ISO)
  6
Continuous
 62
     7
370
    18
100
AcDbDimension
  2
*D22
 10
717.3135988189999
 20
1019.101691467746
 30
0.0
 11
591.3135988189998
 21
1019.101691467746
 31
0.0
 70
   160
  1
(<>)
 71
     5
 42
252.0
  3
VBG-RF-ISO
100
AcDbAlignedDimension
 13
465.3135988189999
 23
958.6621361226487
 33
0.0
 14
717.3135988189999
 24
968.6621361226487
 34
0.0
 50
180.0
100
AcDbRotatedDimension
1001
ACAD
1000
DSTYLE
1002
{
1070
   289
1070
     2
1070
    74
1070
     0
1070
   271
1070
     2
1070
   147
1040
0.4
1070
    72
1070
     0
1070
    71
1070
     0
1070
   272
1070
     2
1070
    48
1040
0.0
1070
    47
1040
0.0
1002
}
  0
DIMENSION
  5
C0A
330
75
100
AcDbEntity
  8
Dimensions(ISO)
  6
Continuous
 62
     7
370
    18
100
AcDbDimension
  2
*D23
 10
707.3135988189999
 20
996.2486203490056
 30
0.0
 11
664.3691240577449
 21
996.2486203490056
 31
0.0
 70
   160
  1
<>
 71
     5
 42
10.0
  3
VBG-RF-ISO
100
AcDbAlignedDimension
 13
717.3135988189999
 23
968.6621361226487
 33
0.0
 14
707.3135988189999
 24
968.6621361226487
 34
0.0
 50
180.0
100
AcDbRotatedDimension
1001
ACAD
1000
DSTYLE
1002
{
1070
   289
1070
     2
1070
    74
1070
     0
1070
   271
1070
     2
1070
   272
1070
     2
1070
    48
1040
0.0
1070
    47
1040
0.0
1002
}
  0
DIMENSION
  5
CFD
330
75
100
AcDbEntity
  8
Dimensions(ISO)
  6
Continuous
 62
     7
370
    18
100
AcDbDimension
  2
*D24
 10
752.6485326184038
 20
403.6621361226488
 30
0.0
 11
752.6485326184036
 21
643.6621361226488
 31
0.0
 70
   160
  1
<>
 71
     5
 42
480.0
  3
VBG-RF-ISO
100
AcDbAlignedDimension
 13
690.8135988189999
 23
883.6621361226489
 33
0.0
 14
690.813598819
 24
403.6621361226488
 34
0.0
 50
270.0
100
AcDbRotatedDimension
1001
ACAD
1000
DSTYLE
1002
{
1070
   289
1070
     2
1070
    74
1070
     0
1070
   271
1070
     2
1070
   272
1070
     2
1070
    48
1040
0.0
1070
    47
1040
0.0
1002
}
  0
DIMENSION
  5
DD9
330
75
100
AcDbEntity
  8
Dimensions(ISO)
  6
Continuous
 62
     7
370
    18
100
AcDbDimension
  2
*D25
 10
674.313598819
 20
289.7213938163886
 30
0.0
 11
695.8135988189999
 21
289.7213938163886
 31
0.0
 70
   160
  1
<>
 71
     5
 42
43.0
  3
VBG-RF-ISO
100
AcDbAlignedDimension
 13
717.3135988189999
 23
328.6621361226488
 33
0.0
 14
674.313598819
 24
327.1621361226489
 34
0.0
 50
0.0000000000000048
100
AcDbRotatedDimension
1001
ACAD
1000
DSTYLE
1002
{
1070
   289
1070
     2
1070
    74
1070
     0
1070
   271
1070
     2
1070
   272
1070
     2
1070
    48
1040
0.0
1070
    47
1040
0.0
1002
}
  0
DIMENSION
  5
EB0
330
75
100
AcDbEntity
  8
Dimensions(ISO)
  6
Continuous
 62
     7
370
    18
100
AcDbDimension
  2
*D26
 10
489.3825249601656
 20
396.738660796
 30
0.0
 11
576.5787800989862
 21
437.7319801068398
 31
0.0
 70
   163
  1
16x <>
 71
     5
 42
17.00000000000011
  3
VBG-RF-ISO
100
AcDbDiametricDimension
 15
499.2446726778348
 25
410.585611449298
 35
0.0
 40
0.0
1001
ACAD
1000
DSTYLE
1002
{
1070
   172
1070
     0
1070
    73
1070
     1
1070
   271
1070
     2
1070
   272
1070
     2
1070
    48
1040
0.0
1070
    47
1040
0.0
1002
}
1001
ACAD_DSTYLE_DIMRADIAL_EXTENSION
1070
   387
1070
     1
1070
   388
1040
0.0
1070
   390
1040
0.0
  0
ENDSEC
  0
SECTION
  2
OBJECTS
  0
DICTIONARY
  5
C
330
0
100
AcDbDictionary
281
     1
  3
ACAD_COLOR
350
6B
  3
ACAD_GROUP
350
D
  3
ACAD_IMAGE_DICT
350
193
  3
ACAD_IMAGE_VARS
350
F61
  3
ACAD_LAYOUT
350
6A
  3
ACAD_MATERIAL
350
10
  3
ACAD_MLEADERSTYLE
350
6E
  3
ACAD_MLINESTYLE
350
67
  3
ACAD_PLOTSETTINGS
350
69
  3
ACAD_PLOTSTYLENAME
350
E
  3
ACAD_SCALELIST
350
3A
  3
ACAD_TABLESTYLE
350
6C
  3
ACAD_VISUALSTYLE
350
29
  3
ACDB_RECOMPOSE_DATA
350
FBA
  3
AcDbVariableDictionary
350
F64
  3
AcmDictionary
350
1021
  3
AMG
350
FD1
  3
AMGSNAPSETTINGS
350
1073
  3
DWGPROPS
350
1099
  0
DICTIONARY
  5
F62
330
75
100
AcDbDictionary
280
     1
281
     1
  3
ACAD_SORTENTS
360
F63
  0
IMAGEDEF_REACTOR
  5
195
330
192
100
AcDbRasterImageDefReactor
 90
        2
330
192
  0
DICTIONARY
  5
F7E
330
1C7
100
AcDbDictionary
280
     1
281
     1
  3
ACAD_MLATT
360
107B
  0
DICTIONARY
  5
F80
330
1C8
100
AcDbDictionary
280
     1
281
     1
  3
ACAD_MLATT
360
107C
  0
DICTIONARY
  5
F82
330
1C9
100
AcDbDictionary
280
     1
281
     1
  3
ACAD_MLATT
360
107D
  0
DICTIONARY
  5
F84
330
1CA
100
AcDbDictionary
280
     1
281
     1
  3
ACAD_MLATT
360
107E
  0
DICTIONARY
  5
F86
330
1CB
100
AcDbDictionary
280
     1
281
     1
  3
ACAD_MLATT
360
107F
  0
DICTIONARY
  5
F88
330
1CC
100
AcDbDictionary
280
     1
281
     1
  3
ACAD_MLATT
360
1080
  0
DICTIONARY
  5
F8A
330
1CD
100
AcDbDictionary
280
     1
281
     1
  3
ACAD_MLATT
360
1081
  0
DICTIONARY
  5
F8C
330
1CE
100
AcDbDictionary
280
     1
281
     1
  3
ACAD_MLATT
360
1082
  0
DICTIONARY
  5
F8E
330
1CF
100
AcDbDictionary
280
     1
281
     1
  3
ACAD_MLATT
360
1083
  0
DICTIONARY
  5
F90
330
1D0
100
AcDbDictionary
280
     1
281
     1
  3
ACAD_MLATT
360
1084
  0
DICTIONARY
  5
F92
330
1D1
100
AcDbDictionary
280
     1
281
     1
  3
ACAD_MLATT
360
1085
  0
DICTIONARY
  5
F94
330
1D2
100
AcDbDictionary
280
     1
281
     1
  3
ACAD_MLATT
360
1086
  0
DICTIONARY
  5
F96
330
1D3
100
AcDbDictionary
280
     1
281
     1
  3
ACAD_MLATT
360
1087
  0
DICTIONARY
  5
F98
330
1D4
100
AcDbDictionary
280
     1
281
     1
  3
ACAD_MLATT
360
1088
  0
DICTIONARY
  5
F9A
330
1D5
100
AcDbDictionary
280
     1
281
     1
  3
ACAD_MLATT
360
1089
  0
DICTIONARY
  5
10A1
330
F5B
100
AcDbDictionary
280
     1
281
     1
  3
ACAD_MTEXT_RT
360
10A2
  0
DICTIONARY
  5
F9C
330
1D8
100
AcDbDictionary
280
     1
281
     1
  3
ACAD_MLATT
360
108A
  0
DICTIONARY
  5
F9E
330
1D9
100
AcDbDictionary
280
     1
281
     1
  3
ACAD_MLATT
360
108B
  0
DICTIONARY
  5
FA0
330
1DA
100
AcDbDictionary
280
     1
281
     1
  3
ACAD_MLATT
360
108C
  0
DICTIONARY
  5
FA2
330
1DB
100
AcDbDictionary
280
     1
281
     1
  3
ACAD_MLATT
360
108D
  0
DICTIONARY
  5
FA4
330
1DC
100
AcDbDictionary
280
     1
281
     1
  3
ACAD_MLATT
360
108E
  0
DICTIONARY
  5
FA6
330
1DD
100
AcDbDictionary
280
     1
281
     1
  3
ACAD_MLATT
360
108F
  0
DICTIONARY
  5
FA8
330
1DE
100
AcDbDictionary
280
     1
281
     1
  3
ACAD_MLATT
360
1090
  0
DICTIONARY
  5
FAA
330
1DF
100
AcDbDictionary
280
     1
281
     1
  3
ACAD_MLATT
360
1091
  0
DICTIONARY
  5
FAC
330
1E0
100
AcDbDictionary
280
     1
281
     1
  3
ACAD_MLATT
360
1092
  0
DICTIONARY
  5
FAE
330
1E1
100
AcDbDictionary
280
     1
281
     1
  3
ACAD_MLATT
360
1093
  0
DICTIONARY
  5
FB0
330
1E2
100
AcDbDictionary
280
     1
281
     1
  3
ACAD_MLATT
360
1094
  0
DICTIONARY
  5
FB2
330
1E3
100
AcDbDictionary
280
     1
281
     1
  3
ACAD_MLATT
360
1095
  0
DICTIONARY
  5
FB4
330
1E4
100
AcDbDictionary
280
     1
281
     1
  3
ACAD_MLATT
360
1096
  0
DICTIONARY
  5
FB6
330
1E5
100
AcDbDictionary
280
     1
281
     1
  3
ACAD_MLATT
360
1097
  0
DICTIONARY
  5
FB8
330
1E6
100
AcDbDictionary
280
     1
281
     1
  3
ACAD_MLATT
360
1098
  0
DICTIONARY
  5
6B
102
{ACAD_REACTORS
330
C
102
}
330
C
100
AcDbDictionary
281
     1
  0
DICTIONARY
  5
D
102
{ACAD_REACTORS
330
C
102
}
330
C
100
AcDbDictionary
281
     1
  0
DICTIONARY
  5
193
102
{ACAD_REACTORS
330
C
102
}
330
C
100
AcDbDictionary
281
     1
  3
OAImg2129676624
350
194
  0
RASTERVARIABLES
  5
F61
102
{ACAD_REACTORS
330
C
102
}
330
C
100
AcDbRasterVariables
 90
        0
 70
     0
 71
     1
 72
     1
  0
DICTIONARY
  5
6A
102
{ACAD_REACTORS
330
C
102
}
330
C
100
AcDbDictionary
281
     1
  3
Layout1
350
74
  3
Layout2
350
7C
  3
Model
350
78
  0
DICTIONARY
  5
10
102
{ACAD_REACTORS
330
C
102
}
330
C
100
AcDbDictionary
281
     1
  3
ByBlock
350
19
  3
ByLayer
350
11
  3
Global
350
21
  0
DICTIONARY
  5
6E
102
{ACAD_REACTORS
330
C
102
}
330
C
100
AcDbDictionary
281
     1
  3
Standard
350
6F
  0
DICTIONARY
  5
67
102
{ACAD_REACTORS
330
C
102
}
330
C
100
AcDbDictionary
281
     1
  3
Standard
350
68
  0
DICTIONARY
  5
69
102
{ACAD_REACTORS
330
C
102
}
330
C
100
AcDbDictionary
281
     1
  0
ACDBDICTIONARYWDFLT
  5
E
102
{ACAD_REACTORS
330
C
102
}
330
C
100
AcDbDictionary
281
     1
  3
Normal
350
F
100
AcDbDictionaryWithDefault
340
F
  0
DICTIONARY
  5
3A
102
{ACAD_REACTORS
330
C
102
}
330
C
100
AcDbDictionary
281
     1
  3
A0
350
3B
  3
A1
350
3C
  3
A2
350
3D
  3
A3
350
3E
  3
A4
350
3F
  3
A5
350
40
  3
A6
350
41
  3
A7
350
42
  3
A8
350
43
  3
A9
350
44
  3
B0
350
45
  3
B1
350
46
  3
B2
350
47
  3
B3
350
48
  3
B4
350
49
  3
B5
350
4A
  3
B6
350
4B
  3
B7
350
4C
  3
B8
350
4D
  3
B9
350
4E
  3
C0
350
4F
  3
C1
350
50
  3
C2
350
51
  3
C3
350
52
  3
C4
350
53
  3
C5
350
54
  3
C6
350
55
  3
C7
350
56
  3
C8
350
57
  3
C9
350
58
  3
D0
350
59
  3
D1
350
5A
  3
D2
350
5B
  0
DICTIONARY
  5
6C
102
{ACAD_REACTORS
330
C
102
}
330
C
100
AcDbDictionary
281
     1
  3
Standard
350
6D
  0
DICTIONARY
  5
29
102
{ACAD_REACTORS
330
C
102
}
330
C
100
AcDbDictionary
281
     1
  3
2dWireframe
350
2F
  3
3D Hidden
350
31
  3
3dWireframe
350
30
  3
Basic
350
2E
  3
Brighten
350
35
  3
ColorChange
350
39
  3
Conceptual
350
32
  3
Dim
350
34
  3
Facepattern
350
38
  3
Flat
350
2A
  3
FlatWithEdges
350
2B
  3
Gouraud
350
2C
  3
GouraudWithEdges
350
2D
  3
Linepattern
350
37
  3
Realistic
350
33
  3
Thicken
350
36
  0
XRECORD
  5
FBA
102
{ACAD_REACTORS
330
C
102
}
330
C
100
AcDbXrecord
280
     1
 90
        1
330
6D
330
1C7
330
1C8
330
1C9
330
1CA
330
1CB
330
1CC
330
1CD
330
1CE
330
1CF
330
1D0
330
1D1
330
1D2
330
1D3
330
1D4
330
1D5
330
1D8
330
1D9
330
1DA
330
1DB
330
1DC
330
1DD
330
1DE
330
1DF
330
1E0
330
1E1
330
1E2
330
1E3
330
1E4
330
1E5
330
1E6
  0
DICTIONARY
  5
F64
102
{ACAD_REACTORS
330
C
102
}
330
C
100
AcDbDictionary
281
     1
  3
CANNOSCALE
350
F68
  3
CMLEADERSTYLE
350
F66
  3
CTABLESTYLE
350
F65
  3
DIMASSOC
350
F6F
  3
HIDETEXT
350
F6E
  3
INDEXCTL
350
F6D
  3
LAYEREVAL
350
F6A
  3
LAYERNOTIFY
350
F6B
  3
LIGHTINGUNITS
350
F69
  3
MSLTSCALE
350
F67
  3
SORTENTS
350
F6C
  0
DICTIONARY
  5
1021
102
{ACAD_REACTORS
330
C
102
}
330
C
100
AcDbDictionary
281
     1
  3
AcmStdDictionary
350
1022
  0
DICTIONARY
  5
FD1
102
{ACAD_REACTORS
330
C
102
}
330
C
100
AcDbDictionary
281
     1
  0
DICTIONARY
  5
1073
102
{ACAD_REACTORS
330
C
102
}
330
C
100
AcDbDictionary
281
     1
  0
XRECORD
  5
1099
102
{ACAD_REACTORS
330
C
102
}
330
C
100
AcDbXrecord
280
     1
  1
DWGPROPS COOKIE
  2

  3

  4
CH
  6

  7

  8
sn
  9

300
Manager=
301
Company=
302
Category=
303
Part Number=38-182600
304
Description=
305
Project=
306
Designer=CC
307
Engineer=
308
Authority=
309
Cost Center=
 40
0.0012106018518519
 41
2455084.585796111
 42
2455084.588512639
  1

 90
       30
300
Vendor=
300
User Status=
300
Design Status=WorkInProgress
300
Checked by=
300
Engr Approved by=
300
Mfg Approved by=
300
Drawing Usable for=
300
Foreign Drawing No.=
300
Modification No.=8779
300
Modified By=CC
300
Modified Date=09/07/2006
300
Surface Treatment=
300
Tol. Machined Surface=
300
Tol. Surface Texture=
300
Tol. Unmachined Surface=
300
RF-Id. No.=
300
RF-Remark=
300
CSToolsScale=1:4
300
Stage=P
300
Issue=a
  0
SORTENTSTABLE
  5
F63
102
{ACAD_REACTORS
330
F62
102
}
330
F62
100
AcDbSortentsTable
330
75
331
699
  5
699
331
DD9
  5
DD9
331
229
  5
229
331
414
  5
414
331
223
  5
223
331
214
  5
214
331
21D
  5
21D
331
20E
  5
20E
331
78E
  5
78E
331
208
  5
208
331
A40
  5
A40
331
202
  5
202
331
1F3
  5
1F3
331
23B
  5
23B
331
1FC
  5
1FC
331
1ED
  5
1ED
331
235
  5
235
331
790
  5
790
331
EB0
  5
EB0
331
22A
  5
22A
331
4EB
  5
4EB
331
224
  5
224
331
215
  5
215
331
1D6
  5
18E
331
78F
  5
78F
331
21E
  5
21E
331
20F
  5
20F
331
218
  5
218
331
209
  5
209
331
23C
  5
23C
331
203
  5
203
331
1F4
  5
1F4
331
1FD
  5
1FD
331
1EE
  5
1EE
331
1E8
  5
1E8
331
236
  5
236
331
230
  5
230
331
791
  5
791
331
22B
  5
22B
331
CFD
  5
CFD
331
225
  5
225
331
216
  5
216
331
21F
  5
21F
331
B28
  5
B28
331
210
  5
210
331
219
  5
219
331
20A
  5
20A
331
31A
  5
31A
331
204
  5
204
331
1F5
  5
1F5
331
23D
  5
23D
331
1EF
  5
1EF
331
1FE
  5
1FE
331
237
  5
237
331
1F8
  5
1F8
331
1E9
  5
1E9
331
231
  5
231
331
792
  5
792
331
22C
  5
22C
331
226
  5
226
331
217
  5
217
331
211
  5
211
331
220
  5
220
331
C0A
  5
C0A
331
21A
  5
21A
331
20B
  5
20B
331
205
  5
205
331
1F6
  5
1F6
331
18E
  5
1D6
331
238
  5
238
331
1FF
  5
1FF
331
1F0
  5
1F0
331
1F9
  5
1F9
331
1EA
  5
1EA
331
232
  5
232
331
793
  5
793
331
22D
  5
22D
331
227
  5
227
331
221
  5
221
331
212
  5
212
331
21B
  5
21B
331
20C
  5
20C
331
78C
  5
78C
331
206
  5
206
331
1F7
  5
1F7
331
946
  5
946
331
200
  5
200
331
1F1
  5
1F1
331
239
  5
239
331
86A
  5
86A
331
1FA
  5
1FA
331
1EB
  5
1EB
331
233
  5
233
331
22E
  5
22E
331
228
  5
228
331
222
  5
222
331
213
  5
213
331
5C2
  5
5C2
331
78D
  5
78D
331
21C
  5
21C
331
20D
  5
20D
331
207
  5
207
331
23A
  5
23A
331
201
  5
201
331
1F2
  5
1F2
331
1FB
  5
1FB
331
1EC
  5
1EC
331
1E7
  5
1E7
331
234
  5
234
331
22F
  5
22F
  0
XRECORD
  5
107B
102
{ACAD_REACTORS
330
F7E
102
}
330
F7E
100
AcDbXrecord
280
     1
 70
     4
 70
     0
 70
     0
 40
1.0
  2
Description1
  1
Embedded Object
 10
1.737226500570243
 20
19.11683290212767
 30
0.0
 40
3.499999940395355
 41
0.0
 46
0.0
 71
     1
 72
     5
  1
EDH-2TB
  7
VBG-RF-ISO
 73
     1
 44
1.0
  0
XRECORD
  5
107C
102
{ACAD_REACTORS
330
F80
102
}
330
F80
100
AcDbXrecord
280
     1
 70
     4
 70
     0
 70
     0
 40
1.0
  2
Description2
  1
Embedded Object
 10
1.737226500570243
 20
12.63245777564242
 30
0.0
 40
3.499999940395355
 41
0.0
 46
0.0
 71
     1
 72
     5
  1

  7
VBG-RF-ISO
 73
     1
 44
1.0
  0
XRECORD
  5
107D
102
{ACAD_REACTORS
330
F82
102
}
330
F82
100
AcDbXrecord
280
     1
 70
     4
 70
     0
 70
     0
 40
1.0
  2
Description3
  1
Embedded Object
 10
1.737226500570243
 20
6.148082649157177
 30
0.0
 40
3.499999940395355
 41
0.0
 46
0.0
 71
     1
 72
     5
  1

  7
VBG-RF-ISO
 73
     1
 44
1.0
  0
XRECORD
  5
107E
102
{ACAD_REACTORS
330
F84
102
}
330
F84
100
AcDbXrecord
280
     1
 70
     4
 70
     0
 70
     0
 40
1.0
  2
PART_NUMBER
  1
Embedded Object
 10
106.0000000152229
 20
26.87780508681657
 30
0.0
 40
3.499999940395355
 41
0.0
 46
0.0
 71
     1
 72
     5
  1
21-112200
  7
VBG-RF-ISO
 73
     1
 44
1.0
  0
XRECORD
  5
107F
102
{ACAD_REACTORS
330
F86
102
}
330
F86
100
AcDbXrecord
280
     1
 70
     4
 70
     0
 70
     0
 40
1.0
  2
PART_NUMBER
  1
Embedded Object
 10
114.0000000152229
 20
12.05561168842063
 30
0.0
 40
5.0
 41
0.0
 46
0.0
 71
     1
 72
     5
  1
38-182600
  7
VBG-RF-ISO
 73
     1
 44
1.0
  0
XRECORD
  5
1080
102
{ACAD_REACTORS
330
F88
102
}
330
F88
100
AcDbXrecord
280
     1
 70
     4
 70
     0
 70
     0
 40
1.0
  2
CSToolsScale
  1
Embedded Object
 10
119.5000000152229
 20
19.37928640739064
 30
0.0
 40
3.499999940395355
 41
0.0
 46
0.0
 71
     1
 72
     5
  1
1:4
  7
VBG-RF-ISO
 73
     1
 44
1.0
  0
XRECORD
  5
1081
102
{ACAD_REACTORS
330
F8A
102
}
330
F8A
100
AcDbXrecord
280
     1
 70
     4
 70
     0
 70
     0
 40
1.0
  2
Issue
  1
Embedded Object
 10
178.0000000152229
 20
34.73791794674297
 30
0.0
 40
3.499999940395355
 41
0.0
 46
0.0
 71
     1
 72
     5
  1
a
  7
VBG-RF-ISO
 73
     1
 44
1.0
  0
XRECORD
  5
1082
102
{ACAD_REACTORS
330
F8C
102
}
330
F8C
100
AcDbXrecord
280
     1
 70
     4
 70
     0
 70
     0
 40
1.0
  2
Modified_Date
  1
Embedded Object
 10
106.0000000152229
 20
34.47927946538889
 30
0.0
 40
3.499999940395355
 41
0.0
 46
0.0
 71
     1
 72
     5
  1
2006-09-07
  7
VBG-RF-ISO
 73
     1
 44
1.0
  0
XRECORD
  5
1083
102
{ACAD_REACTORS
330
F8E
102
}
330
F8E
100
AcDbXrecord
280
     1
 70
     4
 70
     0
 70
     0
 40
1.0
  2
Modified_By
  1
Embedded Object
 10
133.0000000152229
 20
34.73791794674297
 30
0.0
 40
3.499999940395355
 41
0.0
 46
0.0
 71
     1
 72
     5
  1
CC
  7
VBG-RF-ISO
 73
     1
 44
1.0
  0
XRECORD
  5
1084
102
{ACAD_REACTORS
330
F90
102
}
330
F90
100
AcDbXrecord
280
     1
 70
     4
 70
     0
 70
     0
 40
1.0
  2
Modification_No.
  1
Embedded Object
 10
151.0000000152229
 20
34.73791794674297
 30
0.0
 40
3.499999940395355
 41
0.0
 46
0.0
 71
     1
 72
     5
  1
8779
  7
VBG-RF-ISO
 73
     1
 44
1.0
  0
XRECORD
  5
1085
102
{ACAD_REACTORS
330
F92
102
}
330
F92
100
AcDbXrecord
280
     1
 70
     4
 70
     0
 70
     0
 40
1.0
  2
Sheet_Size
  1
Embedded Object
 10
106.0000000152229
 20
19.37928640739064
 30
0.0
 40
3.499999940395355
 41
0.0
 46
0.0
 71
     1
 72
     5
  1
A3
  7
VBG-RF-ISO
 73
     1
 44
1.0
  0
XRECORD
  5
1086
102
{ACAD_REACTORS
330
F94
102
}
330
F94
100
AcDbXrecord
280
     1
 70
     4
 70
     0
 70
     0
 40
1.0
  2
CREATION_DATE
  1
Embedded Object
 10
151.0000000152229
 20
19.37928640739064
 30
0.0
 40
3.499999940395355
 41
0.0
 46
0.0
 71
     1
 72
     5
  1
2006-09-07
  7
VBG-RF-ISO
 73
     1
 44
1.0
  0
XRECORD
  5
1087
102
{ACAD_REACTORS
330
F96
102
}
330
F96
100
AcDbXrecord
280
     1
 70
     4
 70
     0
 70
     0
 40
1.0
  2
DESIGNER
  1
Embedded Object
 10
178.0000000152229
 20
19.37928640739064
 30
0.0
 40
3.499999940395355
 41
0.0
 46
0.0
 71
     1
 72
     5
  1
CC
  7
VBG-RF-ISO
 73
     1
 44
1.0
  0
XRECORD
  5
1088
102
{ACAD_REACTORS
330
F98
102
}
330
F98
100
AcDbXrecord
280
     1
 70
     4
 70
     0
 70
     0
 40
1.0
  2
Stage
  1
Embedded Object
 10
106.0000000152229
 20
12.05561168842063
 30
0.0
 40
5.0
 41
0.0
 46
0.0
 71
     1
 72
     5
  1
P
  7
VBG-RF-ISO
 73
     1
 44
1.0
  0
XRECORD
  5
1089
102
{ACAD_REACTORS
330
F9A
102
}
330
F9A
100
AcDbXrecord
280
     1
 70
     4
 70
     0
 70
     0
 40
1.0
  2
AUTHOR
  1
Embedded Object
 10
165.0000000152229
 20
27.17922882197716
 30
0.0
 40
3.499999940395355
 41
0.0
 46
0.0
 71
     1
 72
     5
  1
SN
  7
VBG-RF-ISO
 73
     1
 44
1.0
  0
XRECORD
  5
10A2
102
{ACAD_REACTORS
330
10A1
102
}
330
10A1
100
AcDbXrecord
280
     1
 40
8857.0
  1
\A1;16x \U+220517
  0
XRECORD
  5
108A
102
{ACAD_REACTORS
330
F9C
102
}
330
F9C
100
AcDbXrecord
280
     1
 70
     2
 70
     0
 70
     0
 40
1.0
  2
Description1
  1
Embedded Object
 10
886.9489059413892
 20
116.2173297970079
 30
0.0
 40
13.99999976158142
 41
0.0
 46
0.0
 71
     1
 72
     5
  1
EDH-2TB
  7
VBG-RF-ISO
 73
     1
 44
1.0
  0
XRECORD
  5
108B
102
{ACAD_REACTORS
330
F9E
102
}
330
F9E
100
AcDbXrecord
280
     1
 70
     2
 70
     0
 70
     0
 40
1.0
  2
Description2
  1
Embedded Object
 10
886.9489059413892
 20
90.27982929106691
 30
0.0
 40
13.99999976158142
 41
0.0
 46
0.0
 71
     1
 72
     5
  1

  7
VBG-RF-ISO
 73
     1
 44
1.0
  0
XRECORD
  5
108C
102
{ACAD_REACTORS
330
FA0
102
}
330
FA0
100
AcDbXrecord
280
     1
 70
     2
 70
     0
 70
     0
 40
1.0
  2
Description3
  1
Embedded Object
 10
886.9489059413892
 20
64.34232878512593
 30
0.0
 40
13.99999976158142
 41
0.0
 46
0.0
 71
     1
 72
     5
  1

  7
VBG-RF-ISO
 73
     1
 44
1.0
  0
XRECORD
  5
108D
102
{ACAD_REACTORS
330
FA2
102
}
330
FA2
100
AcDbXrecord
280
     1
 70
     2
 70
     0
 70
     0
 40
1.0
  2
PART_NUMBER
  1
Embedded Object
 10
1304.0
 20
147.2612185357635
 30
0.0
 40
13.99999976158142
 41
0.0
 46
0.0
 71
     1
 72
     5
  1
21-112200
  7
VBG-RF-ISO
 73
     1
 44
1.0
  0
XRECORD
  5
108E
102
{ACAD_REACTORS
330
FA4
102
}
330
FA4
100
AcDbXrecord
280
     1
 70
     2
 70
     0
 70
     0
 40
1.0
  2
PART_NUMBER
  1
Embedded Object
 10
1336.0
 20
87.97244494217975
 30
0.0
 40
20.0
 41
0.0
 46
0.0
 71
     1
 72
     5
  1
38-182600
  7
VBG-RF-ISO
 73
     1
 44
1.0
  0
XRECORD
  5
108F
102
{ACAD_REACTORS
330
FA6
102
}
330
FA6
100
AcDbXrecord
280
     1
 70
     2
 70
     0
 70
     0
 40
1.0
  2
CSToolsScale
  1
Embedded Object
 10
1358.0
 20
117.2671438180598
 30
0.0
 40
13.99999976158142
 41
0.0
 46
0.0
 71
     1
 72
     5
  1
1:4
  7
VBG-RF-ISO
 73
     1
 44
1.0
  0
XRECORD
  5
1090
102
{ACAD_REACTORS
330
FA8
102
}
330
FA8
100
AcDbXrecord
280
     1
 70
     2
 70
     0
 70
     0
 40
1.0
  2
Issue
  1
Embedded Object
 10
1592.0
 20
178.7016699754691
 30
0.0
 40
13.99999976158142
 41
0.0
 46
0.0
 71
     1
 72
     5
  1
a
  7
VBG-RF-ISO
 73
     1
 44
1.0
  0
XRECORD
  5
1091
102
{ACAD_REACTORS
330
FAA
102
}
330
FAA
100
AcDbXrecord
280
     1
 70
     2
 70
     0
 70
     0
 40
1.0
  2
Modified_Date
  1
Embedded Object
 10
1304.0
 20
177.6671160500528
 30
0.0
 40
13.99999976158142
 41
0.0
 46
0.0
 71
     1
 72
     5
  1
2006-09-07
  7
VBG-RF-ISO
 73
     1
 44
1.0
  0
XRECORD
  5
1092
102
{ACAD_REACTORS
330
FAC
102
}
330
FAC
100
AcDbXrecord
280
     1
 70
     2
 70
     0
 70
     0
 40
1.0
  2
Modified_By
  1
Embedded Object
 10
1412.0
 20
178.7016699754691
 30
0.0
 40
13.99999976158142
 41
0.0
 46
0.0
 71
     1
 72
     5
  1
CC
  7
VBG-RF-ISO
 73
     1
 44
1.0
  0
XRECORD
  5
1093
102
{ACAD_REACTORS
330
FAE
102
}
330
FAE
100
AcDbXrecord
280
     1
 70
     2
 70
     0
 70
     0
 40
1.0
  2
Modification_No.
  1
Embedded Object
 10
1484.0
 20
178.7016699754691
 30
0.0
 40
13.99999976158142
 41
0.0
 46
0.0
 71
     1
 72
     5
  1
8779
  7
VBG-RF-ISO
 73
     1
 44
1.0
  0
XRECORD
  5
1094
102
{ACAD_REACTORS
330
FB0
102
}
330
FB0
100
AcDbXrecord
280
     1
 70
     2
 70
     0
 70
     0
 40
1.0
  2
Sheet_Size
  1
Embedded Object
 10
1304.0
 20
117.2671438180598
 30
0.0
 40
13.99999976158142
 41
0.0
 46
0.0
 71
     1
 72
     5
  1
A3
  7
VBG-RF-ISO
 73
     1
 44
1.0
  0
XRECORD
  5
1095
102
{ACAD_REACTORS
330
FB2
102
}
330
FB2
100
AcDbXrecord
280
     1
 70
     2
 70
     0
 70
     0
 40
1.0
  2
CREATION_DATE
  1
Embedded Object
 10
1484.0
 20
117.2671438180598
 30
0.0
 40
13.99999976158142
 41
0.0
 46
0.0
 71
     1
 72
     5
  1
2006-09-07
  7
VBG-RF-ISO
 73
     1
 44
1.0
  0
XRECORD
  5
1096
102
{ACAD_REACTORS
330
FB4
102
}
330
FB4
100
AcDbXrecord
280
     1
 70
     2
 70
     0
 70
     0
 40
1.0
  2
DESIGNER
  1
Embedded Object
 10
1592.0
 20
117.2671438180598
 30
0.0
 40
13.99999976158142
 41
0.0
 46
0.0
 71
     1
 72
     5
  1
CC
  7
VBG-RF-ISO
 73
     1
 44
1.0
  0
XRECORD
  5
1097
102
{ACAD_REACTORS
330
FB6
102
}
330
FB6
100
AcDbXrecord
280
     1
 70
     2
 70
     0
 70
     0
 40
1.0
  2
Stage
  1
Embedded Object
 10
1304.0
 20
87.97244494217975
 30
0.0
 40
20.0
 41
0.0
 46
0.0
 71
     1
 72
     5
  1
P
  7
VBG-RF-ISO
 73
     1
 44
1.0
  0
XRECORD
  5
1098
102
{ACAD_REACTORS
330
FB8
102
}
330
FB8
100
AcDbXrecord
280
     1
 70
     2
 70
     0
 70
     0
 40
1.0
  2
AUTHOR
  1
Embedded Object
 10
1540.0
 20
148.4669134764058
 30
0.0
 40
13.99999976158142
 41
0.0
 46
0.0
 71
     1
 72
     5
  1
SN
  7
VBG-RF-ISO
 73
     1
 44
1.0
  0
IMAGEDEF
  5
194
102
{ACAD_REACTORS
330
193
330
195
102
}
330
193
100
AcDbRasterImageDef
 90
        0
  1
M:\38-1826000.bmp
 10
297.0
 20
146.0
 11
0.2645502645502646
 21
0.2645502645502646
280
     1
281
     2
  0
LAYOUT
  5
74
102
{ACAD_XDICTIONARY
360
109B
102
}
102
{ACAD_REACTORS
330
6A
102
}
330
6A
100
AcDbPlotSettings
  1

  2

  4

  6

 40
0.0
 41
0.0
 42
0.0
 43
0.0
 44
0.0
 45
0.0
 46
0.0
 47
0.0
 48
0.0
 49
0.0
140
0.0
141
0.0
142
1.0
143
1.0
 70
   688
 72
     0
 73
     0
 74
     5
  7

 75
    16
147
1.0
148
0.0
149
0.0
100
AcDbLayout
  1
Layout1
 70
     1
 71
     1
 10
0.0
 20
0.0
 11
1680.0
 21
1188.0
 12
0.0
 22
0.0
 32
0.0
 14
0.0
 24
0.0
 34
0.0
 15
1680.0
 25
1188.0
 35
0.0
146
0.0
 13
0.0
 23
0.0
 33
0.0
 16
1.0
 26
0.0
 36
0.0
 17
0.0
 27
1.0
 37
0.0
 76
     0
330
71
  0
LAYOUT
  5
7C
102
{ACAD_XDICTIONARY
360
109F
102
}
102
{ACAD_REACTORS
330
6A
102
}
330
6A
100
AcDbPlotSettings
  1

  2

  4

  6

 40
0.0
 41
0.0
 42
0.0
 43
0.0
 44
0.0
 45
0.0
 46
0.0
 47
0.0
 48
0.0
 49
0.0
140
0.0
141
0.0
142
1.0
143
1.0
 70
   688
 72
     0
 73
     0
 74
     5
  7

 75
    16
147
1.0
148
0.0
149
0.0
100
AcDbLayout
  1
Layout2
 70
     1
 71
     2
 10
0.0
 20
0.0
 11
12.0
 21
9.0
 12
0.0
 22
0.0
 32
0.0
 14
0.0
 24
0.0
 34
0.0
 15
0.0
 25
0.0
 35
0.0
146
0.0
 13
0.0
 23
0.0
 33
0.0
 16
1.0
 26
0.0
 36
0.0
 17
0.0
 27
1.0
 37
0.0
 76
     0
330
79
  0
LAYOUT
  5
78
102
{ACAD_XDICTIONARY
360
109D
102
}
102
{ACAD_REACTORS
330
6A
102
}
330
6A
100
AcDbPlotSettings
  1

  2

  4

  6

 40
0.0
 41
0.0
 42
0.0
 43
0.0
 44
0.0
 45
0.0
 46
0.0
 47
0.0
 48
0.0
 49
0.0
140
0.0
141
0.0
142
1.0
143
1.0
 70
  1712
 72
     0
 73
     0
 74
     0
  7

 75
     0
147
1.0
148
0.0
149
0.0
100
AcDbLayout
  1
Model
 70
     1
 71
     0
 10
0.0
 20
0.0
 11
12.0
 21
9.0
 12
0.0
 22
0.0
 32
0.0
 14
0.0
 24
0.0
 34
0.0
 15
0.0
 25
0.0
 35
0.0
146
0.0
 13
0.0
 23
0.0
 33
0.0
 16
1.0
 26
0.0
 36
0.0
 17
0.0
 27
1.0
 37
0.0
 76
     0
330
75
331
5F
  0
MATERIAL
  5
19
102
{ACAD_XDICTIONARY
360
1A
102
}
102
{ACAD_REACTORS
330
10
102
}
330
10
100
AcDbMaterial
  1
ByBlock
 72
     0
 43
0.0208333333333333
 43
0.0
 43
0.0
 43
0.0
 43
0.0
 43
0.0208333333333333
 43
0.0
 43
0.0
 43
0.0
 43
0.0
 43
1.0
 43
0.0
 43
0.0
 43
0.0
 43
0.0
 43
1.0
 77
     0
 47
0.0208333333333333
 47
0.0
 47
0.0
 47
0.0
 47
0.0
 47
0.0208333333333333
 47
0.0
 47
0.0
 47
0.0
 47
0.0
 47
1.0
 47
0.0
 47
0.0
 47
0.0
 47
0.0
 47
1.0
171
     0
 49
0.0208333333333333
 49
0.0
 49
0.0
 49
0.0
 49
0.0
 49
0.0208333333333333
 49
0.0
 49
0.0
 49
0.0
 49
0.0
 49
1.0
 49
0.0
 49
0.0
 49
0.0
 49
0.0
 49
1.0
175
     0
142
0.0208333333333333
142
0.0
142
0.0
142
0.0
142
0.0
142
0.0208333333333333
142
0.0
142
0.0
142
0.0
142
0.0
142
1.0
142
0.0
142
0.0
142
0.0
142
0.0
142
1.0
179
     0
144
0.0208333333333333
144
0.0
144
0.0
144
0.0
144
0.0
144
0.0208333333333333
144
0.0
144
0.0
144
0.0
144
0.0
144
1.0
144
0.0
144
0.0
144
0.0
144
0.0
144
1.0
147
0.0208333333333333
147
0.0
147
0.0
147
0.0
147
0.0
147
0.0208333333333333
147
0.0
147
0.0
147
0.0
147
0.0
147
1.0
147
0.0
147
0.0
147
0.0
147
0.0
147
1.0
  0
MATERIAL
  5
11
102
{ACAD_XDICTIONARY
360
12
102
}
102
{ACAD_REACTORS
330
10
102
}
330
10
100
AcDbMaterial
  1
ByLayer
 72
     0
 43
0.0208333333333333
 43
0.0
 43
0.0
 43
0.0
 43
0.0
 43
0.0208333333333333
 43
0.0
 43
0.0
 43
0.0
 43
0.0
 43
1.0
 43
0.0
 43
0.0
 43
0.0
 43
0.0
 43
1.0
 77
     0
 47
0.0208333333333333
 47
0.0
 47
0.0
 47
0.0
 47
0.0
 47
0.0208333333333333
 47
0.0
 47
0.0
 47
0.0
 47
0.0
 47
1.0
 47
0.0
 47
0.0
 47
0.0
 47
0.0
 47
1.0
171
     0
 49
0.0208333333333333
 49
0.0
 49
0.0
 49
0.0
 49
0.0
 49
0.0208333333333333
 49
0.0
 49
0.0
 49
0.0
 49
0.0
 49
1.0
 49
0.0
 49
0.0
 49
0.0
 49
0.0
 49
1.0
175
     0
142
0.0208333333333333
142
0.0
142
0.0
142
0.0
142
0.0
142
0.0208333333333333
142
0.0
142
0.0
142
0.0
142
0.0
142
1.0
142
0.0
142
0.0
142
0.0
142
0.0
142
1.0
179
     0
144
0.0208333333333333
144
0.0
144
0.0
144
0.0
144
0.0
144
0.0208333333333333
144
0.0
144
0.0
144
0.0
144
0.0
144
1.0
144
0.0
144
0.0
144
0.0
144
0.0
144
1.0
147
0.0208333333333333
147
0.0
147
0.0
147
0.0
147
0.0
147
0.0208333333333333
147
0.0
147
0.0
147
0.0
147
0.0
147
1.0
147
0.0
147
0.0
147
0.0
147
0.0
147
1.0
  0
MATERIAL
  5
21
102
{ACAD_XDICTIONARY
360
22
102
}
102
{ACAD_REACTORS
330
10
102
}
330
10
100
AcDbMaterial
  1
Global
 72
     0
 43
0.0208333333333333
 43
0.0
 43
0.0
 43
0.0
 43
0.0
 43
0.0208333333333333
 43
0.0
 43
0.0
 43
0.0
 43
0.0
 43
1.0
 43
0.0
 43
0.0
 43
0.0
 43
0.0
 43
1.0
 77
     0
 47
0.0208333333333333
 47
0.0
 47
0.0
 47
0.0
 47
0.0
 47
0.0208333333333333
 47
0.0
 47
0.0
 47
0.0
 47
0.0
 47
1.0
 47
0.0
 47
0.0
 47
0.0
 47
0.0
 47
1.0
171
     0
 49
0.0208333333333333
 49
0.0
 49
0.0
 49
0.0
 49
0.0
 49
0.0208333333333333
 49
0.0
 49
0.0
 49
0.0
 49
0.0
 49
1.0
 49
0.0
 49
0.0
 49
0.0
 49
0.0
 49
1.0
175
     0
142
0.0208333333333333
142
0.0
142
0.0
142
0.0
142
0.0
142
0.0208333333333333
142
0.0
142
0.0
142
0.0
142
0.0
142
1.0
142
0.0
142
0.0
142
0.0
142
0.0
142
1.0
179
     0
144
0.0208333333333333
144
0.0
144
0.0
144
0.0
144
0.0
144
0.0208333333333333
144
0.0
144
0.0
144
0.0
144
0.0
144
1.0
144
0.0
144
0.0
144
0.0
144
0.0
144
1.0
147
0.0208333333333333
147
0.0
147
0.0
147
0.0
147
0.0
147
0.0208333333333333
147
0.0
147
0.0
147
0.0
147
0.0
147
1.0
147
0.0
147
0.0
147
0.0
147
0.0
147
1.0
  0
MLEADERSTYLE
  5
6F
102
{ACAD_REACTORS
330
6E
102
}
330
6E
100
AcDbMLeaderStyle
170
     2
171
     1
172
     0
 90
        2
 40
0.0
 41
0.0
173
     1
 91
-1056964608
340
63
 92
       -2
290
     1
 42
0.09
291
     1
 43
0.36
  3
Standard
 44
0.18
300

342
5D
174
     1
178
     6
175
     1
176
     0
 93
-1056964608
 45
0.18
292
     0
297
     0
 46
0.18
 94
-1056964608
 47
1.0
 49
1.0
140
1.0
293
     1
141
0.0
294
     1
177
     0
142
1.0
295
     0
296
     0
143
0.125
1001
ACAD_MLEADERVER
1070
     2
  0
MLINESTYLE
  5
68
102
{ACAD_REACTORS
330
67
102
}
330
67
100
AcDbMlineStyle
  2
STANDARD
 70
     0
  3

 62
   256
 51
90.0
 52
90.0
 71
     2
 49
0.5
 62
   256
  6
BYLAYER
 49
-0.5
 62
   256
  6
BYLAYER
  0
ACDBPLACEHOLDER
  5
F
102
{ACAD_REACTORS
330
E
102
}
330
E
  0
SCALE
  5
3B
102
{ACAD_REACTORS
330
3A
102
}
330
3A
100
AcDbScale
 70
     0
300
1:1
140
1.0
141
1.0
290
     1
  0
SCALE
  5
3C
102
{ACAD_REACTORS
330
3A
102
}
330
3A
100
AcDbScale
 70
     0
300
1:2
140
1.0
141
2.0
290
     0
  0
SCALE
  5
3D
102
{ACAD_REACTORS
330
3A
102
}
330
3A
100
AcDbScale
 70
     0
300
1:4
140
1.0
141
4.0
290
     0
  0
SCALE
  5
3E
102
{ACAD_REACTORS
330
3A
102
}
330
3A
100
AcDbScale
 70
     0
300
1:5
140
1.0
141
5.0
290
     0
  0
SCALE
  5
3F
102
{ACAD_REACTORS
330
3A
102
}
330
3A
100
AcDbScale
 70
     0
300
1:8
140
1.0
141
8.0
290
     0
  0
SCALE
  5
40
102
{ACAD_REACTORS
330
3A
102
}
330
3A
100
AcDbScale
 70
     0
300
1:10
140
1.0
141
10.0
290
     0
  0
SCALE
  5
41
102
{ACAD_REACTORS
330
3A
102
}
330
3A
100
AcDbScale
 70
     0
300
1:16
140
1.0
141
16.0
290
     0
  0
SCALE
  5
42
102
{ACAD_REACTORS
330
3A
102
}
330
3A
100
AcDbScale
 70
     0
300
1:20
140
1.0
141
20.0
290
     0
  0
SCALE
  5
43
102
{ACAD_REACTORS
330
3A
102
}
330
3A
100
AcDbScale
 70
     0
300
1:30
140
1.0
141
30.0
290
     0
  0
SCALE
  5
44
102
{ACAD_REACTORS
330
3A
102
}
330
3A
100
AcDbScale
 70
     0
300
1:40
140
1.0
141
40.0
290
     0
  0
SCALE
  5
45
102
{ACAD_REACTORS
330
3A
102
}
330
3A
100
AcDbScale
 70
     0
300
1:50
140
1.0
141
50.0
290
     0
  0
SCALE
  5
46
102
{ACAD_REACTORS
330
3A
102
}
330
3A
100
AcDbScale
 70
     0
300
1:100
140
1.0
141
100.0
290
     0
  0
SCALE
  5
47
102
{ACAD_REACTORS
330
3A
102
}
330
3A
100
AcDbScale
 70
     0
300
2:1
140
2.0
141
1.0
290
     0
  0
SCALE
  5
48
102
{ACAD_REACTORS
330
3A
102
}
330
3A
100
AcDbScale
 70
     0
300
4:1
140
4.0
141
1.0
290
     0
  0
SCALE
  5
49
102
{ACAD_REACTORS
330
3A
102
}
330
3A
100
AcDbScale
 70
     0
300
8:1
140
8.0
141
1.0
290
     0
  0
SCALE
  5
4A
102
{ACAD_REACTORS
330
3A
102
}
330
3A
100
AcDbScale
 70
     0
300
10:1
140
10.0
141
1.0
290
     0
  0
SCALE
  5
4B
102
{ACAD_REACTORS
330
3A
102
}
330
3A
100
AcDbScale
 70
     0
300
100:1
140
100.0
141
1.0
290
     0
  0
SCALE
  5
4C
102
{ACAD_REACTORS
330
3A
102
}
330
3A
100
AcDbScale
 70
     0
300
1/128" = 1'-0"
140
0.0078125
141
12.0
290
     0
  0
SCALE
  5
4D
102
{ACAD_REACTORS
330
3A
102
}
330
3A
100
AcDbScale
 70
     0
300
1/64" = 1'-0"
140
0.015625
141
12.0
290
     0
  0
SCALE
  5
4E
102
{ACAD_REACTORS
330
3A
102
}
330
3A
100
AcDbScale
 70
     0
300
1/32" = 1'-0"
140
0.03125
141
12.0
290
     0
  0
SCALE
  5
4F
102
{ACAD_REACTORS
330
3A
102
}
330
3A
100
AcDbScale
 70
     0
300
1/16" = 1'-0"
140
0.0625
141
12.0
290
     0
  0
SCALE
  5
50
102
{ACAD_REACTORS
330
3A
102
}
330
3A
100
AcDbScale
 70
     0
300
3/32" = 1'-0"
140
0.09375
141
12.0
290
     0
  0
SCALE
  5
51
102
{ACAD_REACTORS
330
3A
102
}
330
3A
100
AcDbScale
 70
     0
300
1/8" = 1'-0"
140
0.125
141
12.0
290
     0
  0
SCALE
  5
52
102
{ACAD_REACTORS
330
3A
102
}
330
3A
100
AcDbScale
 70
     0
300
3/16" = 1'-0"
140
0.1875
141
12.0
290
     0
  0
SCALE
  5
53
102
{ACAD_REACTORS
330
3A
102
}
330
3A
100
AcDbScale
 70
     0
300
1/4" = 1'-0"
140
0.25
141
12.0
290
     0
  0
SCALE
  5
54
102
{ACAD_REACTORS
330
3A
102
}
330
3A
100
AcDbScale
 70
     0
300
3/8" = 1'-0"
140
0.375
141
12.0
290
     0
  0
SCALE
  5
55
102
{ACAD_REACTORS
330
3A
102
}
330
3A
100
AcDbScale
 70
     0
300
1/2" = 1'-0"
140
0.5
141
12.0
290
     0
  0
SCALE
  5
56
102
{ACAD_REACTORS
330
3A
102
}
330
3A
100
AcDbScale
 70
     0
300
3/4" = 1'-0"
140
0.75
141
12.0
290
     0
  0
SCALE
  5
57
102
{ACAD_REACTORS
330
3A
102
}
330
3A
100
AcDbScale
 70
     0
300
1" = 1'-0"
140
1.0
141
12.0
290
     0
  0
SCALE
  5
58
102
{ACAD_REACTORS
330
3A
102
}
330
3A
100
AcDbScale
 70
     0
300
1-1/2" = 1'-0"
140
1.5
141
12.0
290
     0
  0
SCALE
  5
59
102
{ACAD_REACTORS
330
3A
102
}
330
3A
100
AcDbScale
 70
     0
300
3" = 1'-0"
140
3.0
141
12.0
290
     0
  0
SCALE
  5
5A
102
{ACAD_REACTORS
330
3A
102
}
330
3A
100
AcDbScale
 70
     0
300
6" = 1'-0"
140
6.0
141
12.0
290
     0
  0
SCALE
  5
5B
102
{ACAD_REACTORS
330
3A
102
}
330
3A
100
AcDbScale
 70
     0
300
1'-0" = 1'-0"
140
12.0
141
12.0
290
     0
  0
TABLESTYLE
  5
6D
102
{ACAD_XDICTIONARY
360
F70
102
}
102
{ACAD_REACTORS
330
6C
102
}
330
6C
100
AcDbTableStyle
  3
Standard
 70
     0
 71
     0
 40
0.06
 41
0.06
280
     0
281
     0
  7
Standard
140
0.18
170
     2
 62
     0
 63
     7
283
     0
274
    -2
284
     1
 64
     0
275
    -2
285
     1
 65
     0
276
    -2
286
     1
 66
     0
277
    -2
287
     1
 67
     0
278
    -2
288
     1
 68
     0
279
    -2
289
     1
 69
     0
  7
Standard
140
0.25
170
     5
 62
     0
 63
     7
283
     0
274
    -2
284
     1
 64
     0
275
    -2
285
     1
 65
     0
276
    -2
286
     1
 66
     0
277
    -2
287
     1
 67
     0
278
    -2
288
     1
 68
     0
279
    -2
289
     1
 69
     0
  7
Standard
140
0.18
170
     5
 62
     0
 63
     7
283
     0
274
    -2
284
     1
 64
     0
275
    -2
285
     1
 65
     0
276
    -2
286
     1
 66
     0
277
    -2
287
     1
 67
     0
278
    -2
288
     1
 68
     0
279
    -2
289
     1
 69
     0
  0
VISUALSTYLE
  5
2F
102
{ACAD_REACTORS
330
29
102
}
330
29
100
AcDbVisualStyle
  2
2dWireframe
 70
     4
 71
     0
 72
     2
 73
     0
 90
        0
 40
-0.6
 41
-30.0
 62
     5
 63
     7
 74
     1
 91
        4
 64
     7
 65
   257
 75
     1
175
     1
 42
1.0
 92
        0
 66
   257
 43
1.0
 76
     1
 77
     6
 78
     2
 67
     7
 79
     5
170
     0
171
     0
290
     0
174
     0
 93
        1
 44
0.0
173
     0
291
     0
 45
0.0
1001
ACAD
1000
AcDbSavedByObjectVersion
1070
     0
1000
AcDbSavedByObjectVersion
1070
     0
  0
VISUALSTYLE
  5
31
102
{ACAD_REACTORS
330
29
102
}
330
29
100
AcDbVisualStyle
  2
3D Hidden
 70
     6
 71
     1
 72
     2
 73
     2
 90
        0
 40
-0.6
 41
-30.0
 62
     5
 63
     7
 74
     2
 91
        2
 64
     7
 65
   257
 75
     2
175
     1
 42
40.0
 92
        0
 66
   257
 43
1.0
 76
     1
 77
     6
 78
     2
 67
     7
 79
     3
170
     0
171
     0
290
     0
174
     0
 93
        1
 44
0.0
173
     0
291
     0
 45
0.0
1001
ACAD
1000
AcDbSavedByObjectVersion
1070
     0
1000
AcDbSavedByObjectVersion
1070
     0
  0
VISUALSTYLE
  5
30
102
{ACAD_REACTORS
330
29
102
}
330
29
100
AcDbVisualStyle
  2
3dWireframe
 70
     5
 71
     0
 72
     2
 73
     0
 90
        0
 40
-0.6
 41
-30.0
 62
     5
 63
     7
 74
     1
 91
        4
 64
     7
 65
   257
 75
     1
175
     1
 42
1.0
 92
        0
 66
   257
 43
1.0
 76
     1
 77
     6
 78
     2
 67
     7
 79
     5
170
     0
171
     0
290
     0
174
     0
 93
        1
 44
0.0
173
     0
291
     0
 45
0.0
1001
ACAD
1000
AcDbSavedByObjectVersion
1070
     0
1000
AcDbSavedByObjectVersion
1070
     0
  0
VISUALSTYLE
  5
2E
102
{ACAD_REACTORS
330
29
102
}
330
29
100
AcDbVisualStyle
  2
Basic
 70
     7
 71
     1
 72
     0
 73
     1
 90
        0
 40
-0.6
 41
-30.0
 62
     5
 63
     7
 74
     0
 91
        4
 64
     7
 65
   257
 75
     1
175
     1
 42
1.0
 92
        8
 66
     7
 43
1.0
 76
     1
 77
     6
 78
     2
 67
     7
 79
     5
170
     0
171
     0
290
     0
174
     0
 93
        1
 44
0.0
173
     0
291
     1
 45
0.0
1001
ACAD
1000
AcDbSavedByObjectVersion
1070
     0
1000
AcDbSavedByObjectVersion
1070
     0
  0
VISUALSTYLE
  5
35
102
{ACAD_REACTORS
330
29
102
}
330
29
100
AcDbVisualStyle
  2
Brighten
 70
    12
 71
     2
 72
     2
 73
     0
 90
        0
 40
-0.6
 41
-30.0
 62
     5
 63
     7
 74
     1
 91
        4
 64
     7
 65
   257
 75
     1
175
     1
 42
1.0
 92
        8
 66
     7
 43
1.0
 76
     1
 77
     6
 78
     2
 67
     7
 79
     5
170
     0
171
     0
290
     0
174
     0
 93
        1
 44
50.0
173
     0
291
     1
 45
0.0
1001
ACAD
1000
AcDbSavedByObjectVersion
1070
     0
1000
AcDbSavedByObjectVersion
1070
     0
  0
VISUALSTYLE
  5
39
102
{ACAD_REACTORS
330
29
102
}
330
29
100
AcDbVisualStyle
  2
ColorChange
 70
    16
 71
     2
 72
     2
 73
     3
 90
        0
 40
-0.6
 41
-30.0
 62
     5
 63
     8
 74
     1
 91
        4
 64
     7
 65
   257
 75
     1
175
     1
 42
1.0
 92
        8
 66
     8
 43
1.0
 76
     1
 77
     6
 78
     2
 67
     7
 79
     5
170
     0
171
     0
290
     0
174
     0
 93
        1
 44
0.0
173
     0
291
     1
 45
0.0
1001
ACAD
1000
AcDbSavedByObjectVersion
1070
     0
1000
AcDbSavedByObjectVersion
1070
     0
  0
VISUALSTYLE
  5
32
102
{ACAD_REACTORS
330
29
102
}
330
29
100
AcDbVisualStyle
  2
Conceptual
 70
     9
 71
     3
 72
     2
 73
     0
 90
        0
 40
-0.6
 41
-30.0
 62
     5
 63
     7
 74
     2
 91
        2
 64
     7
 65
   257
 75
     1
175
     1
 42
40.0
 92
        8
 66
     7
 43
1.0
 76
     1
 77
     6
 78
     2
 67
     7
 79
     3
170
     0
171
     0
290
     0
174
     0
 93
        1
 44
0.0
173
     0
291
     0
 45
0.0
1001
ACAD
1000
AcDbSavedByObjectVersion
1070
     0
1000
AcDbSavedByObjectVersion
1070
     0
  0
VISUALSTYLE
  5
34
102
{ACAD_REACTORS
330
29
102
}
330
29
100
AcDbVisualStyle
  2
Dim
 70
    11
 71
     2
 72
     2
 73
     0
 90
        0
 40
-0.6
 41
-30.0
 62
     5
 63
     7
 74
     1
 91
        4
 64
     7
 65
   257
 75
     1
175
     1
 42
1.0
 92
        8
 66
     7
 43
1.0
 76
     1
 77
     6
 78
     2
 67
     7
 79
     5
170
     0
171
     0
290
     0
174
     0
 93
        1
 44
-50.0
173
     0
291
     1
 45
0.0
1001
ACAD
1000
AcDbSavedByObjectVersion
1070
     0
1000
AcDbSavedByObjectVersion
1070
     0
  0
VISUALSTYLE
  5
38
102
{ACAD_REACTORS
330
29
102
}
330
29
100
AcDbVisualStyle
  2
Facepattern
 70
    15
 71
     2
 72
     2
 73
     0
 90
        0
 40
-0.6
 41
-30.0
 62
     5
 63
     7
 74
     1
 91
        4
 64
     7
 65
   257
 75
     1
175
     1
 42
1.0
 92
        8
 66
     7
 43
1.0
 76
     1
 77
     6
 78
     2
 67
     7
 79
     5
170
     0
171
     0
290
     0
174
     0
 93
        1
 44
0.0
173
     0
291
     1
 45
0.0
1001
ACAD
1000
AcDbSavedByObjectVersion
1070
     0
1000
AcDbSavedByObjectVersion
1070
     0
  0
VISUALSTYLE
  5
2A
102
{ACAD_REACTORS
330
29
102
}
330
29
100
AcDbVisualStyle
  2
Flat
 70
     0
 71
     2
 72
     1
 73
     1
 90
        2
 40
-0.6
 41
30.0
 62
     5
 63
     7
 74
     0
 91
        4
 64
     7
 65
   257
 75
     1
175
     1
 42
1.0
 92
        8
 66
     7
 43
1.0
 76
     1
 77
     6
 78
     2
 67
     7
 79
     5
170
     0
171
     0
290
     0
174
     0
 93
       13
 44
0.0
173
     0
291
     1
 45
0.0
1001
ACAD
1000
AcDbSavedByObjectVersion
1070
     0
1000
AcDbSavedByObjectVersion
1070
     0
  0
VISUALSTYLE
  5
2B
102
{ACAD_REACTORS
330
29
102
}
330
29
100
AcDbVisualStyle
  2
FlatWithEdges
 70
     1
 71
     2
 72
     1
 73
     1
 90
        2
 40
-0.6
 41
30.0
 62
     5
 63
     7
 74
     1
 91
        4
 64
     7
 65
   257
 75
     1
175
     1
 42
1.0
 92
        0
 66
   257
 43
1.0
 76
     1
 77
     6
 78
     2
 67
     7
 79
     5
170
     0
171
     0
290
     0
174
     0
 93
       13
 44
0.0
173
     0
291
     1
 45
0.0
1001
ACAD
1000
AcDbSavedByObjectVersion
1070
     0
1000
AcDbSavedByObjectVersion
1070
     0
  0
VISUALSTYLE
  5
2C
102
{ACAD_REACTORS
330
29
102
}
330
29
100
AcDbVisualStyle
  2
Gouraud
 70
     2
 71
     2
 72
     2
 73
     1
 90
        2
 40
-0.6
 41
30.0
 62
     5
 63
     7
 74
     0
 91
        4
 64
     7
 65
   257
 75
     1
175
     1
 42
1.0
 92
        0
 66
     7
 43
1.0
 76
     1
 77
     6
 78
     2
 67
     7
 79
     5
170
     0
171
     0
290
     0
174
     0
 93
       13
 44
0.0
173
     0
291
     1
 45
0.0
1001
ACAD
1000
AcDbSavedByObjectVersion
1070
     0
1000
AcDbSavedByObjectVersion
1070
     0
  0
VISUALSTYLE
  5
2D
102
{ACAD_REACTORS
330
29
102
}
330
29
100
AcDbVisualStyle
  2
GouraudWithEdges
 70
     3
 71
     2
 72
     2
 73
     1
 90
        2
 40
-0.6
 41
30.0
 62
     5
 63
     7
 74
     1
 91
        4
 64
     7
 65
   257
 75
     1
175
     1
 42
1.0
 92
        0
 66
   257
 43
1.0
 76
     1
 77
     6
 78
     2
 67
     7
 79
     5
170
     0
171
     0
290
     0
174
     0
 93
       13
 44
0.0
173
     0
291
     1
 45
0.0
1001
ACAD
1000
AcDbSavedByObjectVersion
1070
     0
1000
AcDbSavedByObjectVersion
1070
     0
  0
VISUALSTYLE
  5
37
102
{ACAD_REACTORS
330
29
102
}
330
29
100
AcDbVisualStyle
  2
Linepattern
 70
    14
 71
     2
 72
     2
 73
     0
 90
        0
 40
-0.6
 41
-30.0
 62
     5
 63
     7
 74
     1
 91
        4
 64
     7
 65
   257
 75
     7
175
     7
 42
1.0
 92
        8
 66
     7
 43
1.0
 76
     1
 77
     6
 78
     2
 67
     7
 79
     5
170
     0
171
     0
290
     0
174
     0
 93
        1
 44
0.0
173
     0
291
     1
 45
0.0
1001
ACAD
1000
AcDbSavedByObjectVersion
1070
     0
1000
AcDbSavedByObjectVersion
1070
     0
  0
VISUALSTYLE
  5
33
102
{ACAD_REACTORS
330
29
102
}
330
29
100
AcDbVisualStyle
  2
Realistic
 70
     8
 71
     2
 72
     2
 73
     0
 90
        0
 40
-0.6
 41
-30.0
 62
     5
 63
     7
 74
     1
 91
        0
 64
     7
 65
   257
 75
     1
175
     1
 42
1.0
 92
        8
 66
     8
 43
1.0
 76
     1
 77
     6
 78
     2
 67
     7
 79
     5
170
     0
171
     0
290
     0
174
     0
 93
       13
 44
0.0
173
     0
291
     0
 45
0.0
1001
ACAD
1000
AcDbSavedByObjectVersion
1070
     0
1000
AcDbSavedByObjectVersion
1070
     0
  0
VISUALSTYLE
  5
36
102
{ACAD_REACTORS
330
29
102
}
330
29
100
AcDbVisualStyle
  2
Thicken
 70
    13
 71
     2
 72
     2
 73
     0
 90
        0
 40
-0.6
 41
-30.0
 62
     5
 63
     7
 74
     1
 91
        4
 64
     7
 65
   257
 75
     1
175
     1
 42
1.0
 92
       12
 66
     7
 43
1.0
 76
     1
 77
     6
 78
     2
 67
     7
 79
     5
170
     0
171
     0
290
     0
174
     0
 93
        1
 44
0.0
173
     0
291
     1
 45
0.0
1001
ACAD
1000
AcDbSavedByObjectVersion
1070
     0
1000
AcDbSavedByObjectVersion
1070
     0
  0
DICTIONARYVAR
  5
F68
102
{ACAD_REACTORS
330
F64
102
}
330
F64
100
DictionaryVariables
280
     0
  1
1:1
  0
DICTIONARYVAR
  5
F66
102
{ACAD_REACTORS
330
F64
102
}
330
F64
100
DictionaryVariables
280
     0
  1
STANDARD
  0
DICTIONARYVAR
  5
F65
102
{ACAD_REACTORS
330
F64
102
}
330
F64
100
DictionaryVariables
280
     0
  1
STANDARD
  0
DICTIONARYVAR
  5
F6F
102
{ACAD_REACTORS
330
F64
102
}
330
F64
100
DictionaryVariables
280
     0
  1
1
  0
DICTIONARYVAR
  5
F6E
102
{ACAD_REACTORS
330
F64
102
}
330
F64
100
DictionaryVariables
280
     0
  1
1
  0
DICTIONARYVAR
  5
F6D
102
{ACAD_REACTORS
330
F64
102
}
330
F64
100
DictionaryVariables
280
     0
  1
0
  0
DICTIONARYVAR
  5
F6A
102
{ACAD_REACTORS
330
F64
102
}
330
F64
100
DictionaryVariables
280
     0
  1
0
  0
DICTIONARYVAR
  5
F6B
102
{ACAD_REACTORS
330
F64
102
}
330
F64
100
DictionaryVariables
280
     0
  1
0
  0
DICTIONARYVAR
  5
F69
102
{ACAD_REACTORS
330
F64
102
}
330
F64
100
DictionaryVariables
280
     0
  1
2
  0
DICTIONARYVAR
  5
F67
102
{ACAD_REACTORS
330
F64
102
}
330
F64
100
DictionaryVariables
280
     0
  1
1
  0
DICTIONARYVAR
  5
F6C
102
{ACAD_REACTORS
330
F64
102
}
330
F64
100
DictionaryVariables
280
     0
  1
127
  0
DICTIONARY
  5
1022
102
{ACAD_REACTORS
330
1021
102
}
330
1021
100
AcDbDictionary
281
     1
  0
DICTIONARY
  5
109B
330
74
100
AcDbDictionary
280
     1
281
     1
  3
ACAD_XREC_ROUNDTRIP
360
109C
  0
DICTIONARY
  5
109F
330
7C
100
AcDbDictionary
280
     1
281
     1
  3
ACAD_XREC_ROUNDTRIP
360
10A0
  0
DICTIONARY
  5
109D
330
78
100
AcDbDictionary
280
     1
281
     1
  3
ACAD_XREC_ROUNDTRIP
360
109E
  0
DICTIONARY
  5
1A
330
19
100
AcDbDictionary
280
     1
281
     1
  3
ACAD_XREC_ROUNDTRIP
360
FBD
  3
BUMPTILE
360
1C
  3
DIFFUSETILE
360
1B
  3
OPACITYTILE
360
1F
  3
REFLECTIONTILE
360
1E
  3
REFRACTIONTILE
360
20
  3
SPECULARTILE
360
1D
  0
DICTIONARY
  5
12
330
11
100
AcDbDictionary
280
     1
281
     1
  3
ACAD_XREC_ROUNDTRIP
360
FBC
  3
BUMPTILE
360
14
  3
DIFFUSETILE
360
13
  3
OPACITYTILE
360
17
  3
REFLECTIONTILE
360
16
  3
REFRACTIONTILE
360
18
  3
SPECULARTILE
360
15
  0
DICTIONARY
  5
22
330
21
100
AcDbDictionary
280
     1
281
     1
  3
ACAD_XREC_ROUNDTRIP
360
FBE
  3
BUMPTILE
360
24
  3
DIFFUSETILE
360
23
  3
OPACITYTILE
360
27
  3
REFLECTIONTILE
360
26
  3
REFRACTIONTILE
360
28
  3
SPECULARTILE
360
25
  0
DICTIONARY
  5
F70
330
6D
100
AcDbDictionary
280
     1
281
     1
  3
ACAD_ROUNDTRIP_2008_TABLESTYLE_CELLSTYLEMAP
360
107A
  3
ACAD_XREC_ROUNDTRIP
360
109A
  0
XRECORD
  5
109C
102
{ACAD_REACTORS
330
109B
102
}
330
109B
100
AcDbXrecord
280
     1
102
SHADEPLOT
 70
     0
102
SHADEPLOTRESLEVEL
 70
     2
102
SHADEPLOTCUSTOMDPI
 70
   300
  0
XRECORD
  5
10A0
102
{ACAD_REACTORS
330
109F
102
}
330
109F
100
AcDbXrecord
280
     1
102
SHADEPLOT
 70
     0
102
SHADEPLOTRESLEVEL
 70
     2
102
SHADEPLOTCUSTOMDPI
 70
   300
  0
XRECORD
  5
109E
102
{ACAD_REACTORS
330
109D
102
}
330
109D
100
AcDbXrecord
280
     1
102
SHADEPLOT
 70
     0
102
SHADEPLOTRESLEVEL
 70
     2
102
SHADEPLOTCUSTOMDPI
 70
   300
  0
XRECORD
  5
FBD
102
{ACAD_REACTORS
330
1A
102
}
330
1A
100
AcDbXrecord
280
     1
102
MATERIAL
148
0.0
149
0.0
149
0.0
 93
        0
 94
      127
282
     0
 72
     0
 77
     0
171
     0
175
     0
179
     0
273
     0
  0
XRECORD
  5
1C
102
{ACAD_REACTORS
330
1A
102
}
330
1A
100
AcDbXrecord
280
     1
270
     1
271
     1
  0
XRECORD
  5
1B
102
{ACAD_REACTORS
330
1A
102
}
330
1A
100
AcDbXrecord
280
     1
270
     1
271
     1
  0
XRECORD
  5
1F
102
{ACAD_REACTORS
330
1A
102
}
330
1A
100
AcDbXrecord
280
     1
270
     1
271
     1
  0
XRECORD
  5
1E
102
{ACAD_REACTORS
330
1A
102
}
330
1A
100
AcDbXrecord
280
     1
270
     1
271
     1
  0
XRECORD
  5
20
102
{ACAD_REACTORS
330
1A
102
}
330
1A
100
AcDbXrecord
280
     1
270
     1
271
     1
  0
XRECORD
  5
1D
102
{ACAD_REACTORS
330
1A
102
}
330
1A
100
AcDbXrecord
280
     1
270
     1
271
     1
  0
XRECORD
  5
FBC
102
{ACAD_REACTORS
330
12
102
}
330
12
100
AcDbXrecord
280
     1
102
MATERIAL
148
0.0
149
0.0
149
0.0
 93
        0
 94
      127
282
     0
 72
     0
 77
     0
171
     0
175
     0
179
     0
273
     0
  0
XRECORD
  5
14
102
{ACAD_REACTORS
330
12
102
}
330
12
100
AcDbXrecord
280
     1
270
     1
271
     1
  0
XRECORD
  5
13
102
{ACAD_REACTORS
330
12
102
}
330
12
100
AcDbXrecord
280
     1
270
     1
271
     1
  0
XRECORD
  5
17
102
{ACAD_REACTORS
330
12
102
}
330
12
100
AcDbXrecord
280
     1
270
     1
271
     1
  0
XRECORD
  5
16
102
{ACAD_REACTORS
330
12
102
}
330
12
100
AcDbXrecord
280
     1
270
     1
271
     1
  0
XRECORD
  5
18
102
{ACAD_REACTORS
330
12
102
}
330
12
100
AcDbXrecord
280
     1
270
     1
271
     1
  0
XRECORD
  5
15
102
{ACAD_REACTORS
330
12
102
}
330
12
100
AcDbXrecord
280
     1
270
     1
271
     1
  0
XRECORD
  5
FBE
102
{ACAD_REACTORS
330
22
102
}
330
22
100
AcDbXrecord
280
     1
102
MATERIAL
148
0.0
149
0.0
149
0.0
 93
        0
 94
      127
282
     0
 72
     0
 77
     0
171
     0
175
     0
179
     0
273
     0
  0
XRECORD
  5
24
102
{ACAD_REACTORS
330
22
102
}
330
22
100
AcDbXrecord
280
     1
270
     1
271
     1
  0
XRECORD
  5
23
102
{ACAD_REACTORS
330
22
102
}
330
22
100
AcDbXrecord
280
     1
270
     1
271
     1
  0
XRECORD
  5
27
102
{ACAD_REACTORS
330
22
102
}
330
22
100
AcDbXrecord
280
     1
270
     1
271
     1
  0
XRECORD
  5
26
102
{ACAD_REACTORS
330
22
102
}
330
22
100
AcDbXrecord
280
     1
270
     1
271
     1
  0
XRECORD
  5
28
102
{ACAD_REACTORS
330
22
102
}
330
22
100
AcDbXrecord
280
     1
270
     1
271
     1
  0
XRECORD
  5
25
102
{ACAD_REACTORS
330
22
102
}
330
22
100
AcDbXrecord
280
     1
270
     1
271
     1
  0
CELLSTYLEMAP
  5
107A
102
{ACAD_REACTORS
330
F70
102
}
330
F70
100
AcDbCellStyleMap
 90
        3
300
CELLSTYLE
  1
TABLEFORMAT_BEGIN
 90
        5
170
     1
 91
        0
 92
    32768
 62
   257
 93
        1
300
CONTENTFORMAT
  1
CONTENTFORMAT_BEGIN
 90
        0
 91
        0
 92
      512
 93
        0
300

 40
0.0
140
1.0
 94
        5
 62
     0
340
5D
144
0.25
309
CONTENTFORMAT_END
171
     1
301
MARGIN
  1
CELLMARGIN_BEGIN
 40
0.06
 40
0.06
 40
0.06
 40
0.06
 40
0.18
 40
0.18
309
CELLMARGIN_END
 94
        6
 95
        1
302
GRIDFORMAT
  1
GRIDFORMAT_BEGIN
 90
        0
 91
        1
 62
     0
 92
       -2
340
0
 93
        0
 40
0.045
309
GRIDFORMAT_END
 95
        2
302
GRIDFORMAT
  1
GRIDFORMAT_BEGIN
 90
        0
 91
        1
 62
     0
 92
       -2
340
0
 93
        0
 40
0.045
309
GRIDFORMAT_END
 95
        4
302
GRIDFORMAT
  1
GRIDFORMAT_BEGIN
 90
        0
 91
        1
 62
     0
 92
       -2
340
0
 93
        0
 40
0.045
309
GRIDFORMAT_END
 95
        8
302
GRIDFORMAT
  1
GRIDFORMAT_BEGIN
 90
        0
 91
        1
 62
     0
 92
       -2
340
0
 93
        0
 40
0.045
309
GRIDFORMAT_END
 95
       16
302
GRIDFORMAT
  1
GRIDFORMAT_BEGIN
 90
        0
 91
        1
 62
     0
 92
       -2
340
0
 93
        0
 40
0.045
309
GRIDFORMAT_END
 95
       32
302
GRIDFORMAT
  1
GRIDFORMAT_BEGIN
 90
        0
 91
        1
 62
     0
 92
       -2
340
0
 93
        0
 40
0.045
309
GRIDFORMAT_END
309
TABLEFORMAT_END
  1
CELLSTYLE_BEGIN
 90
        1
 91
        1
300
_TITLE
309
CELLSTYLE_END
300
CELLSTYLE
  1
TABLEFORMAT_BEGIN
 90
        5
170
     1
 91
        0
 92
        0
 62
   257
 93
        1
300
CONTENTFORMAT
  1
CONTENTFORMAT_BEGIN
 90
        0
 91
        0
 92
      512
 93
        0
300

 40
0.0
140
1.0
 94
        5
 62
     0
340
5D
144
0.18
309
CONTENTFORMAT_END
171
     1
301
MARGIN
  1
CELLMARGIN_BEGIN
 40
0.06
 40
0.06
 40
0.06
 40
0.06
 40
0.18
 40
0.18
309
CELLMARGIN_END
 94
        6
 95
        1
302
GRIDFORMAT
  1
GRIDFORMAT_BEGIN
 90
        0
 91
        1
 62
     0
 92
       -2
340
0
 93
        0
 40
0.045
309
GRIDFORMAT_END
 95
        2
302
GRIDFORMAT
  1
GRIDFORMAT_BEGIN
 90
        0
 91
        1
 62
     0
 92
       -2
340
0
 93
        0
 40
0.045
309
GRIDFORMAT_END
 95
        4
302
GRIDFORMAT
  1
GRIDFORMAT_BEGIN
 90
        0
 91
        1
 62
     0
 92
       -2
340
0
 93
        0
 40
0.045
309
GRIDFORMAT_END
 95
        8
302
GRIDFORMAT
  1
GRIDFORMAT_BEGIN
 90
        0
 91
        1
 62
     0
 92
       -2
340
0
 93
        0
 40
0.045
309
GRIDFORMAT_END
 95
       16
302
GRIDFORMAT
  1
GRIDFORMAT_BEGIN
 90
        0
 91
        1
 62
     0
 92
       -2
340
0
 93
        0
 40
0.045
309
GRIDFORMAT_END
 95
       32
302
GRIDFORMAT
  1
GRIDFORMAT_BEGIN
 90
        0
 91
        1
 62
     0
 92
       -2
340
0
 93
        0
 40
0.045
309
GRIDFORMAT_END
309
TABLEFORMAT_END
  1
CELLSTYLE_BEGIN
 90
        2
 91
        1
300
_HEADER
309
CELLSTYLE_END
300
CELLSTYLE
  1
TABLEFORMAT_BEGIN
 90
        5
170
     1
 91
        0
 92
        0
 62
   257
 93
        1
300
CONTENTFORMAT
  1
CONTENTFORMAT_BEGIN
 90
        0
 91
        0
 92
      512
 93
        0
300

 40
0.0
140
1.0
 94
        2
 62
     0
340
5D
144
0.18
309
CONTENTFORMAT_END
171
     1
301
MARGIN
  1
CELLMARGIN_BEGIN
 40
0.06
 40
0.06
 40
0.06
 40
0.06
 40
0.18
 40
0.18
309
CELLMARGIN_END
 94
        6
 95
        1
302
GRIDFORMAT
  1
GRIDFORMAT_BEGIN
 90
        0
 91
        1
 62
     0
 92
       -2
340
0
 93
        0
 40
0.045
309
GRIDFORMAT_END
 95
        2
302
GRIDFORMAT
  1
GRIDFORMAT_BEGIN
 90
        0
 91
        1
 62
     0
 92
       -2
340
0
 93
        0
 40
0.045
309
GRIDFORMAT_END
 95
        4
302
GRIDFORMAT
  1
GRIDFORMAT_BEGIN
 90
        0
 91
        1
 62
     0
 92
       -2
340
0
 93
        0
 40
0.045
309
GRIDFORMAT_END
 95
        8
302
GRIDFORMAT
  1
GRIDFORMAT_BEGIN
 90
        0
 91
        1
 62
     0
 92
       -2
340
0
 93
        0
 40
0.045
309
GRIDFORMAT_END
 95
       16
302
GRIDFORMAT
  1
GRIDFORMAT_BEGIN
 90
        0
 91
        1
 62
     0
 92
       -2
340
0
 93
        0
 40
0.045
309
GRIDFORMAT_END
 95
       32
302
GRIDFORMAT
  1
GRIDFORMAT_BEGIN
 90
        0
 91
        1
 62
     0
 92
       -2
340
0
 93
        0
 40
0.045
309
GRIDFORMAT_END
309
TABLEFORMAT_END
  1
CELLSTYLE_BEGIN
 90
        3
 91
        2
300
_DATA
309
CELLSTYLE_END
  0
XRECORD
  5
109A
102
{ACAD_REACTORS
330
F70
102
}
330
F70
100
AcDbXrecord
280
     1
102
ACAD_ROUNDTRIP_PRE2007_TABLESTYLE
 90
      512
 91
        0
  1

 92
      512
 93
        0
  2

 94
      512
 95
        0
  3

  0
ENDSEC
  0
EOF
